.
Авторизация | Регистрация
btracker.xyz
Торрент скачать бесплатно Мультфильмы торрент скачать Лесная история (1956) WEBRip [H.264 / 1080p-LQ] [PR] торрент скачать бесплатно


    Лесная история (1956) WEBRip [H.264 / 1080p-LQ] [PR] торрент скачать бесплатно

    Дата: 1-02-2020, 05:00 | .torrent скачали: 0

    Лесная история (1956) WEBRip [H.264 / 1080p-LQ] [PR]Производство: СССР/Союзмультфильм
    Жанр: Короткометражный, рисованная анимация
    Режиссер: Александр Иванов, Лев Позднеев

    Описание

    Однажды Мишка наелся мёду. Взвыл косолапый от зубной боли. Собрались вокруг него лесные обитатели, каждый советует, но боль не утихает. Позвали доктора Журавля…

    Возраст: 0+ (для любой зрительской аудитории)
    Продолжительность: 00: 09: 47
    Качество видео: WEBRip
    Субтитры: Отсутствуют
    Видео: AVC/H.264, 1920x1080 (16: 9), ~5120 Kbps
    Аудио: AC3, 2 ch, 192 Kbps
    Общее
    Уникальный идентификатор : 184297506421985756509954352927151067294 (0x8AA6689BEFB5BAD346FF900E1085909E)
    Полное имя : F: Лесная история (1956).mkv
    Формат : Matroska
    Версия формата : Version 4
    Размер файла : 373 Мбайт
    Продолжительность : 9 м. 48 с.
    Общий поток : 5312 Кбит/сек
    Программа кодирования : Lavf58.20.100
    Библиотека кодирования : Lavf58.20.100
    ErrorDetectionType : Per level 1
    Видео
    Идентификатор : 1
    Формат : AVC
    Формат/Информация : Advanced Video Codec
    Профиль формата : High@L4
    Настройки формата : CABAC/4 Ref Frames
    Параметр CABAC формата : Да
    Параметр RefFrames формата : 4 кадра
    Идентификатор кодека : V_MPEG4/ISO/AVC
    Продолжительность : 9 м. 48 с.
    Битрейт : 5120 Кбит/сек
    Ширина : 1920 пикселей
    Высота : 1080 пикселей
    Соотношение сторон : 16: 9
    Режим частоты кадров : Постоянный
    Частота кадров : 24, 000 кадра/сек
    Цветовое пространство : YUV
    Субдискретизация насыщенности : 4: 2: 0
    Битовая глубина : 8 бит
    Тип развёртки : Прогрессивная
    Бит/(Пиксели*Кадры) : 0.103
    Размер потока : 352 Мбайт (94%)
    Библиотека кодирования : x264 core 148
    Настройки программы : cabac=1/ref=3/deblock=1: 0: 0/analyse=0x3: 0x113/me=hex/subme=7/psy=1/psy_rd=1.00: 0.00/mixed_ref=1/me_range=16/chroma_me=1/trellis=1/8x8dct=1/cqm=0/deadzone=21, 11/fast_pskip=1/chroma_qp_offset=-2/threads=34/lookahead_threads=5/sliced_threads=0/nr=0/decimate=1/interlaced=0/bluray_compat=0/constrained_intra=0/bframes=6/b_pyramid=2/b_adapt=1/b_bias=0/direct=1/weightb=1/open_gop=0/weightp=2/keyint=48/keyint_min=25/scenecut=0/intra_refresh=0/rc_lookahead=40/rc=2pass/mbtree=1/bitrate=5120/ratetol=1.0/qcomp=0.60/qpmin=0/qpmax=69/qpstep=4/cplxblur=20.0/qblur=0.5/vbv_maxrate=7680/vbv_bufsize=20480/nal_hrd=none/filler=0/ip_ratio=1.40/aq=1: 1.00
    Default : Да
    Forced : Нет
    Аудио
    Идентификатор : 2
    Формат : AC-3
    Формат/Информация : Audio Coding 3
    Коммерческое название : Dolby Digital
    Идентификатор кодека : A_AC3
    Продолжительность : 9 м. 48 с.
    Вид битрейта : Постоянный
    Битрейт : 192 Кбит/сек
    Каналы : 2 канала
    ChannelLayout : L R
    Частота : 48, 0 КГц
    Частота кадров : 31, 250 кадров/сек (1536 SPF)
    Метод сжатия : С потерями
    Задержка видео : -83 мс.
    Размер потока : 13, 5 Мбайт (4%)
    ServiceKind/String : Complete Main
    Default : Да
    Forced : Нет

    Скриншоты для ознакомления



    Все одноименные релизы в Клубе
    Время раздачи: 24/7 (круглосуточно) (до появления первых 3-5 скачавших)

    Онлайн видео Лесная история (1956) WEBRip [H.264


    Лесная история (1956) WEBRip [H.264/1080p-LQ] [PR]

    Лесная история (1956) WEBRip [H.264 / 1080p-LQ] [PR] торрент скачать бесплатно
    Рейтинг →
     (голосов: 1, оценка 3/5, голосовать можно 1 раз )

    Другие торренты по теме:

  • Forsenses II: Лесная гостинная. Увлекательное путешествие в мир природы и звука / Timber Lounge. A Fascinating Journey through Nature & Sound BDRip [H.264 / 720p]
  • Лесная братва - Over the Hedge (2006) [MP3|320 кб / с]<OST> скачать через торрент бесплатно
  • Малькольм Лаури | У подножия вулкана. Рассказы. Лесная тропа к роднику (1972) [PDF, DJVU] скачать через торрент бесплатно
  • Александр Бушков | Лесная легенда [сборник] (2015) [FB2, EPUB] скачать через торрент бесплатно
  • Елена Первушина | Лесная аптека. Лекарственные растения (2015) [PDF]
  • Александр Поваляев | Лесная колдунья (2016) [FB2]
  • Татьяна Тимохина, Михаил Сайгин | Мои хорошие друзья. Лесная песня (1978) [FB2]
  • Николай Грибачев | Лесная сказка (1961) [PDF, DJVU]


    • Комментарии (0):

      Информация

      Информация

        Посетители, находящиеся в группе Гости, не могут оставлять комментарии в данной новости.

        ↓ Меню




        ↓ Опрос

        Вы добавили сайт в закладки?
        Да
        Нет


        Популярное

        М.Ю. Демидова | ЕГЭ-2020. Физика. 30 типовых вариантов (2020) [PDF]

        (скачиваний: 119)
        Малышарики (2015-2019) WEB-DL [H.264 / 1080p-LQ] (серии 1-154 из 208) [Обновляемая]

        (скачиваний: 111)
        Футурама / Futurama (1999-2013) DVDRip (7 Сезонов, 140 серии) скачать через торрент бесплатно

        (скачиваний: 58)
        Рик и Морти / Rick and Morty (2015) WEB-DL [H.264 / 1080p] (Сезон 2, серии 1-10 из 10) Сыендук [EN / RU Sub] скачать через торрент бесплатно

        (скачиваний: 45)
        Жила-была царевна (2015-2019) WEB-DLRip [H.264 / 720p-LQ] (сезон 1, серии 1-18 из 26) [Обновляемая]

        (скачиваний: 34)
        Лунтик и его друзья (2013-2017) WEB-DLRip 7,8,9 сезон (390-488 серии)[Обновляемая]

        (скачиваний: 34)
        Металионы / Metalions (2018-2019) WEB-DLRip [H.264 / 720p-LQ] (сезон 1, серии 1-52 из 52) [Обновляемая]

        (скачиваний: 32)
        Роботы-пожарные / Fire Robo (2016) WEB-DLRip [H.264 / 720p-LQ] (сезон 1, серии 1-26 из 26) [Обновляемая]

        (скачиваний: 27)
        Снежная Королева: Хранители Чудес (2019) WEB-DLRip [H.264 / 720p-LQ] (сезон 1, серия 1-4 из 26) [Обновляемая]

        (скачиваний: 25)
        Рик и Морти / Rick and Morty (2013-2015) BDRip [H.264] (сезон 1-2, серии 1-21 из 21) Сыендук

        (скачиваний: 25)