.
Авторизация | Регистрация
btracker.xyz
Торрент скачать бесплатно Мультфильмы торрент скачать Стражи Арктики / Arctic Justice (2019) BDRip [H.264 / 720p] торрент скачать бесплатно


    Стражи Арктики / Arctic Justice (2019) BDRip [H.264 / 720p] торрент скачать бесплатно

    Дата: 31-01-2020, 05:00 | .torrent скачали: 0

    Стражи Арктики / Arctic Justice (2019) BDRip [H.264 / 720p]Производство: Индия, Великобритания, Китай, Канада, Япония, Корея Южная, США, AMBI Group, Arctic Justice Movie, Assemblage Entertainment
    Жанр: Мультфильм, комедия, приключения, семейный
    Режиссер: Аарон Вудли
    Продюсер: Моника Бакарди, Джунбум Хео, Андреа Иерволино

    Актеры
    Джереми Реннер, Хайди Клум, Джеймс Франко, Джон Клиз, Омар Си, Лори Холден, Анжелика Хьюстон, Алек Болдуин, Донни Фалсетти, Сорайя Аззаби

    Описание
    Добро пожаловать на ЗвероПолюс, где власть находится в лапах больших, сильных и зубастых. Ради собственного превосходства они готовы переделать под себя весь мир. Лишь маленькие, но очень храбрые встанут на защиту не только родного Северного полюса, но и целой планеты. Именно они — настоящие Стражи Арктики.

    Возраст: 6+ (зрителям, достигшим 6 лет)
    Рейтинг MPAA: PG Рекомендуется присудствие родителей
    Дата мировой премьеры: 1 ноября 2019
    Дата российской премьеры: 14 ноября 2019, Вольга
    Цифровой релиз: 28 января 2020, Вольга
    Релиз от: NNMClub
    Продолжительность: 01: 32: 54
    Качество видео: BDRip 720p
    Перевод: Дублированный(iTunes)
    Субтитры: Английские
    Видео: AVC/H.264, 1280x536, 3500 Kbps, 23.976 fps
    Аудио 1 : AC-3, 6 ch, 384 Kbps | Русский Dub iTunes
    Аудио 2 : AC-3, 6 ch, 384 Kbps | Украинский Dub iTunes
    Аудио 3 : AC-3, 6 ch, 640 Kbps | Английский
    General
    Unique ID : 7923767557560041287216257048044558575 (0x5F60FE72BE652AB5CCAA865B99AD8EF)
    Complete name : /Users/imac/Download-BIGBOY/Arctic.Justice.BDRip.720p.NNMClub.pk.mkv
    Format : Matroska
    Format version : Version 4
    File size : 3.18 GiB
    Duration : 1h 32mn
    Overall bit rate : 4 894 Kbps
    Movie name : Arctic Justice BDRip 720p pk
    Encoded date : UTC 2020-01-30 13: 47: 45
    Writing application : mkvmerge v42.0.0 (\'Overtime\') 64-bit
    Writing library : libebml v1.3.10 + libmatroska v1.5.2
    Cover : Yes
    Attachments : cover.jpg
    Video
    ID : 1
    Format : AVC
    Format/Info : Advanced Video Codec
    Format profile : High@L4.1
    Format settings : CABAC/12 Ref Frames
    Format settings, CABAC : Yes
    Format settings, ReFrames : 12 frames
    Codec ID : V_MPEG4/ISO/AVC
    Duration : 1h 32mn
    Bit rate : 3 500 Kbps
    Width : 1 280 pixels
    Height : 536 pixels
    Display aspect ratio : 2.40: 1
    Frame rate mode : Constant
    Frame rate : 23.976 (24000/1001) fps
    Color space : YUV
    Chroma subsampling : 4: 2: 0
    Bit depth : 8 bits
    Scan type : Progressive
    Bits/(Pixel*Frame) : 0.213
    Stream size : 2.26 GiB (71%)
    Writing library : x264 core 157 r2935 545de2f
    Encoding settings : cabac=1/ref=12/deblock=1: -3: -3/analyse=0x3: 0x113/me=umh/subme=9/psy=1/psy_rd=1.00: 0.00/mixed_ref=1/me_range=32/chroma_me=1/trellis=2/8x8dct=1/cqm=0/deadzone=21, 11/fast_pskip=0/chroma_qp_offset=-2/threads=17/lookahead_threads=4/sliced_threads=0/nr=0/decimate=0/interlaced=0/bluray_compat=0/constrained_intra=0/bframes=12/b_pyramid=2/b_adapt=2/b_bias=0/direct=1/weightb=0/open_gop=0/weightp=2/keyint=240/keyint_min=24/scenecut=40/intra_refresh=0/rc_lookahead=70/rc=2pass/mbtree=0/bitrate=3500/ratetol=1.0/qcomp=0.65/qpmin=0/qpmax=69/qpstep=4/cplxblur=20.0/qblur=0.5/vbv_maxrate=50000/vbv_bufsize=62000/nal_hrd=none/filler=0/ip_ratio=1.40/pb_ratio=1.30/aq=1: 1.10
    Language : English
    Default : Yes
    Forced : No
    Color range : Limited
    Color primaries : BT.709
    Transfer characteristics : BT.709
    Matrix coefficients : BT.709
    Audio #1
    ID : 2
    Format : AC-3
    Format/Info : Audio Coding 3
    Commercial name : Dolby Digital
    Codec ID : A_AC3
    Duration : 1h 32mn
    Bit rate mode : Constant
    Bit rate : 384 Kbps
    Channel(s) : 6 channels
    Channel layout : L R C LFE Ls Rs
    Sampling rate : 48.0 KHz
    Frame rate : 31.250 fps (1536 SPF)
    Compression mode : Lossy
    Stream size : 255 MiB (8%)
    Title : Russian DUB iTunes
    Language : Russian
    Service kind : Complete Main
    Default : Yes
    Forced : No
    Audio #2
    ID : 3
    Format : AC-3
    Format/Info : Audio Coding 3
    Commercial name : Dolby Digital
    Codec ID : A_AC3
    Duration : 1h 32mn
    Bit rate mode : Constant
    Bit rate : 384 Kbps
    Channel(s) : 6 channels
    Channel layout : L R C LFE Ls Rs
    Sampling rate : 48.0 KHz
    Frame rate : 31.250 fps (1536 SPF)
    Compression mode : Lossy
    Stream size : 255 MiB (8%)
    Title : Ukrainian DUB iTunes
    Language : Ukrainian
    Service kind : Complete Main
    Default : No
    Forced : No
    Audio #3
    ID : 4
    Format : AC-3
    Format/Info : Audio Coding 3
    Commercial name : Dolby Digital
    Codec ID : A_AC3
    Duration : 1h 32mn
    Bit rate mode : Constant
    Bit rate : 640 Kbps
    Channel(s) : 6 channels
    Channel layout : L R C LFE Ls Rs
    Sampling rate : 48.0 KHz
    Frame rate : 31.250 fps (1536 SPF)
    Compression mode : Lossy
    Stream size : 425 MiB (13%)
    Title : English Original
    Language : English
    Service kind : Complete Main
    Default : No
    Forced : No
    Text
    ID : 5
    Format : UTF-8
    Codec ID : S_TEXT/UTF8
    Codec ID/Info : UTF-8 Plain Text
    Duration : 1h 31mn
    Bit rate : 69 bps
    Count of elements : 1599
    Stream size : 46.7 KiB (0%)
    Title : English SDH
    Language : English
    Default : No
    Forced : No
    Menu
    00: 00: 00.000 : en: Chapter 01
    00: 06: 18.628 : en: Chapter 02
    00: 12: 54.524 : en: Chapter 03
    00: 18: 57.553 : en: Chapter 04
    00: 23: 55.267 : en: Chapter 05
    00: 27: 27.521 : en: Chapter 06
    00: 33: 06.151 : en: Chapter 07
    00: 39: 50.388 : en: Chapter 08
    00: 47: 18.002 : en: Chapter 09
    00: 52: 12.796 : en: Chapter 10
    00: 58: 18.370 : en: Chapter 11
    01: 04: 20.607 : en: Chapter 12
    01: 12: 02.193 : en: Chapter 13
    01: 16: 21.744 : en: Chapter 14
    01: 20: 27.489 : en: Chapter 15
    01: 26: 59.548 : en: Chapter 16

    x264 info: frame I: 1410 Avg QP: 9.45 size: 133795
    x264 info: frame P: 35996 Avg QP: 11.48 size: 34485
    x264 info: frame B: 96227 Avg QP: 12.75 size: 10368
    x264 info: consecutive B-frames: 3.9% 4.1% 21.1% 36.7% 11.7% 17.5% 1.6% 0.7% 0.7% 0.3% 0.5% 0.7% 0.4%
    x264 info: mb I I16..4: 8.5% 58.2% 33.3%
    x264 info: mb P I16..4: 1.6% 12.1% 2.7% P16..4: 35.4% 17.2% 16.3% 0.0% 0.0% skip: 14.6%
    x264 info: mb B I16..4: 0.3% 1.4% 0.3% B16..8: 29.9% 11.5% 4.1% direct: 5.2% skip: 47.3% L0: 43.3% L1: 42.5% BI: 14.2%
    x264 info: 8x8 transform intra: 70.9% inter: 36.4%
    x264 info: coded y, uvDC, uvAC intra: 83.4% 85.8% 78.5% inter: 22.1% 19.3% 12.6%
    x264 info: i16 v, h, dc, p: 41% 17% 11% 32%
    x264 info: i8 v, h, dc, ddl, ddr, vr, hd, vl, hu: 15% 18% 15% 6% 8% 8% 10% 8% 11%
    x264 info: i4 v, h, dc, ddl, ddr, vr, hd, vl, hu: 14% 13% 9% 8% 14% 11% 13% 9% 11%
    x264 info: i8c dc, h, v, p: 45% 27% 16% 13%
    x264 info: Weighted P-Frames: Y: 1.6% UV: 1.2%
    x264 info: ref P L0: 58.9% 6.7% 13.8% 5.0% 3.9% 3.0% 2.6% 1.4% 1.3% 1.1% 1.1% 1.1% 0.1% 0.0%
    x264 info: ref B L0: 70.4% 11.1% 6.1% 3.2% 2.4% 2.0% 1.7% 1.1% 1.0% 0.7% 0.3%
    x264 info: ref B L1: 94.4% 5.6%
    x264 info: kb/s: 3484.54

    Скриншоты для ознакомления



    Все одноименные релизы в Клубе
    Время раздачи: 24/7 (круглосуточно) (до появления первых 3-5 скачавших)

    Онлайн видео Стражи Арктики


    Стражи Арктики/Arctic Justice (2019) BDRip [H.264/720p]

    Стражи Арктики / Arctic Justice (2019) BDRip [H.264 / 720p] торрент скачать бесплатно
    Рейтинг →
     (голосов: 1, оценка 3/5, голосовать можно 1 раз )

    Другие торренты по теме:

  • Стражи Арктики / Arctic Justice (2019) BDRip [H.264 / 1080p] [PR]
  • Стражи Арктики / Arctic Justice (2019) BDRip [H.264 / 1080p] [PR]
  • Стражи Арктики / Arctic Justice (2019) BDRip [H.264]
  • Стражи Арктики / Arctic Justice (2019) BDRemux [H.264 / 1080p]
  • Стражи Арктики / Arctic Justice (2019) BDRip [720p] ATV
  • Стражи Арктики / Arctic Justice (2019) BDRip [1080p] ATV
  • Стражи Арктики / Arctic Justice (2019) BDRip [H.264 / 1080p-LQ] [hand made 16:9]
  • Стражи Арктики / Arctic Justice (2019) BDRip [H.264 / 1080p]


    • Комментарии (0):

      Информация

      Информация

        Посетители, находящиеся в группе Гости, не могут оставлять комментарии в данной новости.

        ↓ Меню




        ↓ Опрос

        Вы добавили сайт в закладки?
        Да
        Нет


        Популярное

        М.Ю. Демидова | ЕГЭ-2020. Физика. 30 типовых вариантов (2020) [PDF]

        (скачиваний: 119)
        Малышарики (2015-2019) WEB-DL [H.264 / 1080p-LQ] (серии 1-154 из 208) [Обновляемая]

        (скачиваний: 111)
        Футурама / Futurama (1999-2013) DVDRip (7 Сезонов, 140 серии) скачать через торрент бесплатно

        (скачиваний: 58)
        Рик и Морти / Rick and Morty (2015) WEB-DL [H.264 / 1080p] (Сезон 2, серии 1-10 из 10) Сыендук [EN / RU Sub] скачать через торрент бесплатно

        (скачиваний: 45)
        Жила-была царевна (2015-2019) WEB-DLRip [H.264 / 720p-LQ] (сезон 1, серии 1-18 из 26) [Обновляемая]

        (скачиваний: 34)
        Лунтик и его друзья (2013-2017) WEB-DLRip 7,8,9 сезон (390-488 серии)[Обновляемая]

        (скачиваний: 34)
        Металионы / Metalions (2018-2019) WEB-DLRip [H.264 / 720p-LQ] (сезон 1, серии 1-52 из 52) [Обновляемая]

        (скачиваний: 32)
        Роботы-пожарные / Fire Robo (2016) WEB-DLRip [H.264 / 720p-LQ] (сезон 1, серии 1-26 из 26) [Обновляемая]

        (скачиваний: 27)
        Снежная Королева: Хранители Чудес (2019) WEB-DLRip [H.264 / 720p-LQ] (сезон 1, серия 1-4 из 26) [Обновляемая]

        (скачиваний: 25)
        Рик и Морти / Rick and Morty (2013-2015) BDRip [H.264] (сезон 1-2, серии 1-21 из 21) Сыендук

        (скачиваний: 25)