.
Авторизация | Регистрация
btracker.xyz
Торрент скачать бесплатно Мультфильмы торрент скачать Отроки во Вселенной (1974) DVDRemux торрент скачать бесплатно


    Отроки во Вселенной (1974) DVDRemux торрент скачать бесплатно

    Дата: 29-01-2020, 05:00 | .torrent скачали: 1

    Отроки во Вселенной (1974) DVDRemuxПроизводство: СССР
    Жанр: фантастика; приключения
    Режиссер: Ричард Викторов

    Актеры
    Александр Григорьев, Михаил Ершов, Владимир Савин, Владимир Басов-младший, Ольга Битюкова, Дмитрий Ледогоров, Ирина Попова, Иннокентий Смоктуновский, Игорь Ледогоров, Наталья Фатеева, Анатолий Адоскин, Лев Дуров, Александр Леньков, Юрий Медведев, Надежда Овчарова, Николай Погодин, Раиса Рязанова, Надежда Семенцова, Ольга Сошникова, Александр Вигдоров, Михаил Янушкевич, Александр Зимин
    Описание : Звездолёт Заря с юными космонавтами приближается к планете системы звезды Шедар (Альфа Кассиопеи), с которой поступали тревожные сигналы. Выясняется, что планета захвачена роботами, цель которых — осчастливить жителей планеты, лишив их всех чувств. Ребятам предстоит преодолеть множество сложных проблем и проявить изобретательность, прежде чем они победят роботов, и тогда обитатели планеты смогут вернуться на неё с орбитальной станции, где они укрывались много лет.

    Возраст: 0+ (для любого возраста)
    Продолжительность: 01: 19: 34
    Качество видео: DVDRemux
    Видео: MPEG-2, 720x576@768x576, ~5000 Kbps
    Аудио: AC3, 6 ch, 384 Kbps
    Общее
    Уникальный идентификатор : 178561845327886610244505659062881578331 (0x8655C2AF17B83AA467121F6BE7136D5B)
    Полное имя : C: VideomkvotrokiОтроки во вселенной.1974.DVDRemux.almikl.nnmclub.mkv
    Формат : Matroska
    Версия формата : Version 2
    Размер файла : 3, 86 Гбайт
    Продолжительность : 1 ч. 19 м.
    Режим общего битрейта : Переменный
    Общий поток : 6945 Кбит/сек
    Дата кодирования : UTC 2020-01-22 09: 43: 40
    Программа кодирования : MakeMKV v1.14.7 win(x64-release)
    Библиотека кодирования : libmakemkv v1.14.7 (1.3.5/1.4.7) win(x64-release)
    Видео
    Идентификатор : 1
    OriginalSourceMedium_ID/String : 224 (0xE0)
    Формат : MPEG Video
    Версия формата : Version 2
    Профиль формата : Main@Main
    Настройки формата : CustomMatrix/BVOP
    Параметр BVOP формата : Да
    Параметр матрицы формата : Выборочная
    Параметр GOP формата : M=3, N=12
    Структура изображения : Frame
    Идентификатор кодека : V_MPEG2
    Идентификатор кодека/Информация : MPEG 1 or 2 Video
    Продолжительность : 1 ч. 19 м.
    Вид битрейта : Переменный
    Битрейт : 6555 Кбит/сек
    Максимальный битрейт : 8500 Кбит/сек
    Ширина : 720 пикселей
    Высота : 576 пикселей
    Соотношение сторон : 4: 3
    Режим частоты кадров : Постоянный
    Частота кадров : 25, 000 кадров/сек
    Стандарт вещания : PAL
    Цветовое пространство : YUV
    Субдискретизация насыщенности : 4: 2: 0
    Битовая глубина : 8 бит
    Тип развёртки : Чересстрочная
    Порядок развёртки : Верхнее поле первое
    Метод сжатия : С потерями
    Бит/(Пиксели*Кадры) : 0.632
    Временной код первого кадра : 00: 00: 00: 00
    Оригинал временного кода : Group of pictures t_head
    GOP, открыто/закрыто : Открыто
    GOP, открыто/закрыто на первом кадре : Закрыто
    Размер потока : 3, 64 Гбайт (94%)
    Язык : English
    Default : Нет
    Forced : Нет
    Носитель оригинала : DVD-Video
    Аудио
    Идентификатор : 2
    OriginalSourceMedium_ID/String : 189 (0xBD)128 (0x80)
    Формат : AC-3
    Формат/Информация : Audio Coding 3
    Коммерческое название : Dolby Digital
    Идентификатор кодека : A_AC3
    Продолжительность : 1 ч. 19 м.
    Вид битрейта : Постоянный
    Битрейт : 384 Кбит/сек
    Каналы : 6 каналов
    ChannelLayout : L R C LFE Ls Rs
    Частота : 48, 0 КГц
    Частота кадров : 31, 250 кадров/сек (1536 SPF)
    Метод сжатия : С потерями
    Размер потока : 219 Мбайт (6%)
    Заголовок : Surround 5.1
    Язык : Russian
    ServiceKind/String : Complete Main
    Default : Да
    Forced : Нет
    Носитель оригинала : DVD-Video
    Меню
    00: 00: 00.080 : en: Chapter 01
    00: 05: 54.320 : en: Chapter 02
    00: 13: 35.120 : en: Chapter 03
    00: 20: 15.560 : en: Chapter 04
    00: 26: 30.560 : en: Chapter 05
    00: 32: 36.560 : en: Chapter 06
    00: 40: 39.440 : en: Chapter 07
    00: 47: 56.000 : en: Chapter 08
    00: 55: 12.320 : en: Chapter 09
    01: 00: 30.800 : en: Chapter 10
    01: 06: 03.560 : en: Chapter 11
    01: 17: 25.160 : en: Chapter 12

    Скриншоты для ознакомления



    Все одноименные релизы в Клубе
    Время раздачи: 24/7 (до появления первых 3-5 скачавших)

    Онлайн видео Стражи Арктики



    Отроки во Вселенной (1974) DVDRemux торрент скачать бесплатно
    Рейтинг →
     (голосов: 1, оценка 4/5, голосовать можно 1 раз )

    Другие торренты по теме:

  • Москва-Кассиопея (1973), Отроки во вселенной (1974). Дилогия. 60fps (1973, 1974.) DVDRip
  • Отроки во Вселенной (1974) DVDRip [H.264]
  • Отроки во Вселенной (1974) DVD5
  • Отроки во Вселенной (1974) DVDRemux [R.U.S.C.I.C.O.]
  • Отроки во Вселенной (1974) DVDRemux [R.U.S.C.I.C.O.] [16x9]


    • Комментарии (0):

      Информация

      Информация

        Посетители, находящиеся в группе Гости, не могут оставлять комментарии в данной новости.

        ↓ Меню




        ↓ Опрос

        Вы добавили сайт в закладки?
        Да
        Нет


        Популярное

        М.Ю. Демидова | ЕГЭ-2020. Физика. 30 типовых вариантов (2020) [PDF]

        (скачиваний: 119)
        Малышарики (2015-2019) WEB-DL [H.264 / 1080p-LQ] (серии 1-154 из 208) [Обновляемая]

        (скачиваний: 111)
        Футурама / Futurama (1999-2013) DVDRip (7 Сезонов, 140 серии) скачать через торрент бесплатно

        (скачиваний: 58)
        Рик и Морти / Rick and Morty (2015) WEB-DL [H.264 / 1080p] (Сезон 2, серии 1-10 из 10) Сыендук [EN / RU Sub] скачать через торрент бесплатно

        (скачиваний: 45)
        Жила-была царевна (2015-2019) WEB-DLRip [H.264 / 720p-LQ] (сезон 1, серии 1-18 из 26) [Обновляемая]

        (скачиваний: 34)
        Лунтик и его друзья (2013-2017) WEB-DLRip 7,8,9 сезон (390-488 серии)[Обновляемая]

        (скачиваний: 34)
        Металионы / Metalions (2018-2019) WEB-DLRip [H.264 / 720p-LQ] (сезон 1, серии 1-52 из 52) [Обновляемая]

        (скачиваний: 32)
        Роботы-пожарные / Fire Robo (2016) WEB-DLRip [H.264 / 720p-LQ] (сезон 1, серии 1-26 из 26) [Обновляемая]

        (скачиваний: 27)
        Снежная Королева: Хранители Чудес (2019) WEB-DLRip [H.264 / 720p-LQ] (сезон 1, серия 1-4 из 26) [Обновляемая]

        (скачиваний: 25)
        Рик и Морти / Rick and Morty (2013-2015) BDRip [H.264] (сезон 1-2, серии 1-21 из 21) Сыендук

        (скачиваний: 25)