.
Авторизация | Регистрация
btracker.xyz
Торрент скачать бесплатно Мультфильмы торрент скачать Стражи Арктики / Arctic Justice (2019) BDRemux [H.264 / 1080p] торрент скачать бесплатно


    Стражи Арктики / Arctic Justice (2019) BDRemux [H.264 / 1080p] торрент скачать бесплатно

    Дата: 29-01-2020, 05:00 | .torrent скачали: 0

    Стражи Арктики / Arctic Justice (2019) BDRemux [H.264 / 1080p]Производство: Индия, Великобритания, Китай, Канада, Япония, Корея Южная, США, AMBI Group, Arctic Justice Movie, Assemblage Entertainment
    Жанр: Мультфильм, комедия, приключения, семейны
    Режиссер: Аарон Вудли

    Описание

    Добро пожаловать на ЗвероПолюс, где власть находится в лапах больших, сильных и зубастых. Ради собственного превосходства они готовы переделать под себя весь мир. Лишь маленькие, но очень храбрые встанут на защиту не только родного Северного полюса, но и целой планеты. Именно они - настоящие Стражи Арктики.

    Возраст: 6+ (зрителям, достигшим 6 лет)
    Рейтинг MPAA: PG (рекомендуется присутствие родителей)
    Дата мировой премьеры: 1 ноября 2019
    Дата российской премьеры: 14 ноября 2019, Вольга
    Продолжительность: 01: 34: 54
    Качество видео: BDRemux
    Перевод: Дублированный (iTunes)
    Субтитры: Английские
    Видео: AVC/H.264, 1920x1080, ~26, 6 Mbps
    Аудио 1: AC3, 6 ch, 384 Kbps | русский | iTunes
    Аудио 2: AC3, 6 ch, 384 Kbps | украинский | iTunes
    Аудио 3: DTS-HD MA, 6 ch, ~3856 Kbps | английский | Оригинал
    Аудио 4: AC3, 6 ch, 640 Kbps | английский | Оригинал
    Общее
    Полное имя : Arctic.Dogs.2019.iT.1080p.BluRay.REMUX.AVC.Rus.Ukr.Eng.mkv
    Формат : Matroska
    Версия формата : Version 4
    Размер файла : 20, 7 Гбайт
    Продолжительность : 1 ч. 32 м.
    Режим общего битрейта : Переменный
    Общий поток : 31, 8 Мбит/сек
    Название фильма : Стражи Арктики/Arctic Justice (2019)
    Дата кодирования : UTC 2020-01-28 08: 11: 24
    Программа кодирования : mkvmerge v41.0.0 (\'Smarra\') 64-bit
    Библиотека кодирования : libebml v1.3.9 + libmatroska v1.5.2
    Обложка : Yes
    Attachments : cover.jpg
    Видео
    Идентификатор : 1
    Формат : AVC
    Формат/Информация : Advanced Video Codec
    Профиль формата : High@L4.1
    Настройки формата : CABAC/4 Ref Frames
    Параметр CABAC формата : Да
    Параметр RefFrames формата : 4 кадра
    Идентификатор кодека : V_MPEG4/ISO/AVC
    Продолжительность : 1 ч. 32 м.
    Вид битрейта : Переменный
    Битрейт : 26, 6 Мбит/сек
    Максимальный битрейт : 37, 0 Мбит/сек
    Ширина : 1920 пикселей
    Высота : 1080 пикселей
    Соотношение сторон : 16: 9
    Режим частоты кадров : Постоянный
    Частота кадров : 23, 976 (24000/1001) кадра/сек
    Цветовое пространство : YUV
    Субдискретизация насыщенности : 4: 2: 0
    Битовая глубина : 8 бит
    Тип развёртки : Прогрессивная
    Бит/(Пиксели*Кадры) : 0.535
    Размер потока : 17, 2 Гбайт (83%)
    Заголовок : Стражи Арктики/Arctic Justice (2019)
    Язык : English
    Default : Да
    Forced : Нет
    Аудио #1
    Идентификатор : 2
    Формат : AC-3
    Формат/Информация : Audio Coding 3
    Коммерческое название : Dolby Digital
    Идентификатор кодека : A_AC3
    Продолжительность : 1 ч. 32 м.
    Вид битрейта : Постоянный
    Битрейт : 384 Кбит/сек
    Каналы : 6 каналов
    ChannelLayout : L R C LFE Ls Rs
    Частота : 48, 0 КГц
    Частота кадров : 31, 250 кадров/сек (1536 SPF)
    Метод сжатия : С потерями
    Размер потока : 255 Мбайт (1%)
    Заголовок : DUB | iTunes
    Язык : Russian
    ServiceKind/String : Complete Main
    Default : Да
    Forced : Да
    Аудио #2
    Идентификатор : 3
    Формат : AC-3
    Формат/Информация : Audio Coding 3
    Коммерческое название : Dolby Digital
    Идентификатор кодека : A_AC3
    Продолжительность : 1 ч. 32 м.
    Вид битрейта : Постоянный
    Битрейт : 384 Кбит/сек
    Каналы : 6 каналов
    ChannelLayout : L R C LFE Ls Rs
    Частота : 48, 0 КГц
    Частота кадров : 31, 250 кадров/сек (1536 SPF)
    Метод сжатия : С потерями
    Размер потока : 255 Мбайт (1%)
    Заголовок : DUB | iTunes
    Язык : Ukrainian
    ServiceKind/String : Complete Main
    Default : Нет
    Forced : Нет
    Аудио #3
    Идентификатор : 4
    Формат : DTS XLL
    Формат/Информация : Digital Theater Systems
    Коммерческое название : DTS-HD Master Audio
    Идентификатор кодека : A_DTS
    Продолжительность : 1 ч. 32 м.
    Вид битрейта : Переменный
    Битрейт : 3856 Кбит/сек
    Каналы : 6 каналов
    ChannelLayout : C L R Ls Rs LFE
    Частота : 48, 0 КГц
    Частота кадров : 93, 750 кадра/сек (512 SPF)
    Битовая глубина : 24 бит
    Метод сжатия : Без потерь
    Размер потока : 2, 50 Гбайт (12%)
    Заголовок : Original
    Язык : English
    Default : Нет
    Forced : Нет
    Аудио #4
    Идентификатор : 5
    Формат : AC-3
    Формат/Информация : Audio Coding 3
    Коммерческое название : Dolby Digital
    Идентификатор кодека : A_AC3
    Продолжительность : 1 ч. 32 м.
    Вид битрейта : Постоянный
    Битрейт : 640 Кбит/сек
    Каналы : 6 каналов
    ChannelLayout : L R C LFE Ls Rs
    Частота : 48, 0 КГц
    Частота кадров : 31, 250 кадров/сек (1536 SPF)
    Метод сжатия : С потерями
    Размер потока : 425 Мбайт (2%)
    Заголовок : Original
    Язык : English
    ServiceKind/String : Complete Main
    Default : Нет
    Forced : Нет
    Текст
    Идентификатор : 6
    Формат : UTF-8
    Идентификатор кодека : S_TEXT/UTF8
    Идентификатор кодека/Информация : UTF-8 Plain Text
    Продолжительность : 1 ч. 31 м.
    Битрейт : 69 бит/сек
    ElementCount : 1599
    Размер потока : 46, 7 Кбайт (0%)
    Заголовок : SDH
    Язык : English
    Default : Нет
    Forced : Нет
    Меню
    00: 00: 00.000 : en: Chapter 01
    00: 06: 18.628 : en: Chapter 02
    00: 12: 54.524 : en: Chapter 03
    00: 18: 57.553 : en: Chapter 04
    00: 23: 55.267 : en: Chapter 05
    00: 27: 27.521 : en: Chapter 06
    00: 33: 06.151 : en: Chapter 07
    00: 39: 50.388 : en: Chapter 08
    00: 47: 18.002 : en: Chapter 09
    00: 52: 12.796 : en: Chapter 10
    00: 58: 18.370 : en: Chapter 11
    01: 04: 20.607 : en: Chapter 12
    01: 12: 02.193 : en: Chapter 13
    01: 16: 21.744 : en: Chapter 14
    01: 20: 27.489 : en: Chapter 15
    01: 26: 59.548 : en: Chapter 16


    Онлайн видео Стражи Арктики



    Стражи Арктики / Arctic Justice (2019) BDRemux [H.264 / 1080p] торрент скачать бесплатно
    Рейтинг →
     (голосов: 1, оценка 5/5, голосовать можно 1 раз )

    Другие торренты по теме:

  • Стражи Арктики / Arctic Justice (2019) BDRip [H.264 / 1080p] [PR]
  • Стражи Арктики / Arctic Justice (2019) BDRip [H.264 / 1080p] [PR]
  • Стражи Арктики / Arctic Justice (2019) BDRip [H.264]
  • Стражи Арктики / Arctic Justice (2019) BDRip [720p] ATV
  • Стражи Арктики / Arctic Justice (2019) BDRip [1080p] ATV
  • Стражи Арктики / Arctic Justice (2019) BDRip [H.264 / 1080p-LQ] [hand made 16:9]
  • Стражи Арктики / Arctic Justice (2019) BDRip [H.264 / 1080p]
  • Стражи Арктики / Arctic Justice (2019) BDRip [H.264 / 720p]


    • Комментарии (0):

      Информация

      Информация

        Посетители, находящиеся в группе Гости, не могут оставлять комментарии в данной новости.

        ↓ Меню




        ↓ Опрос

        Вы добавили сайт в закладки?
        Да
        Нет


        Популярное

        М.Ю. Демидова | ЕГЭ-2020. Физика. 30 типовых вариантов (2020) [PDF]

        (скачиваний: 119)
        Малышарики (2015-2019) WEB-DL [H.264 / 1080p-LQ] (серии 1-154 из 208) [Обновляемая]

        (скачиваний: 111)
        Футурама / Futurama (1999-2013) DVDRip (7 Сезонов, 140 серии) скачать через торрент бесплатно

        (скачиваний: 58)
        Рик и Морти / Rick and Morty (2015) WEB-DL [H.264 / 1080p] (Сезон 2, серии 1-10 из 10) Сыендук [EN / RU Sub] скачать через торрент бесплатно

        (скачиваний: 45)
        Жила-была царевна (2015-2019) WEB-DLRip [H.264 / 720p-LQ] (сезон 1, серии 1-18 из 26) [Обновляемая]

        (скачиваний: 34)
        Лунтик и его друзья (2013-2017) WEB-DLRip 7,8,9 сезон (390-488 серии)[Обновляемая]

        (скачиваний: 34)
        Металионы / Metalions (2018-2019) WEB-DLRip [H.264 / 720p-LQ] (сезон 1, серии 1-52 из 52) [Обновляемая]

        (скачиваний: 32)
        Роботы-пожарные / Fire Robo (2016) WEB-DLRip [H.264 / 720p-LQ] (сезон 1, серии 1-26 из 26) [Обновляемая]

        (скачиваний: 27)
        Снежная Королева: Хранители Чудес (2019) WEB-DLRip [H.264 / 720p-LQ] (сезон 1, серия 1-4 из 26) [Обновляемая]

        (скачиваний: 25)
        Рик и Морти / Rick and Morty (2013-2015) BDRip [H.264] (сезон 1-2, серии 1-21 из 21) Сыендук

        (скачиваний: 25)