.
Авторизация | Регистрация
btracker.xyz
Торрент скачать бесплатно Мультфильмы торрент скачать Стражи Арктики / Arctic Justice (2019) BDRip [H.264] торрент скачать бесплатно


    Стражи Арктики / Arctic Justice (2019) BDRip [H.264] торрент скачать бесплатно

    Дата: 29-01-2020, 05:00 | .torrent скачали: 0

    Стражи Арктики / Arctic Justice (2019) BDRip [H.264]Производство: Индия, Великобритания, Китай, Канада, Япония, Корея Южная, США
    Жанр: Мультфильм, комедия, приключения, семейный
    Режиссер: Аарон Вудли
    Актеры дубляжа: Виктор Добронравов, Анна Киселёва, Полина Кузьминская, Аскольд Запашный, Василий Бочкарев, Мария Фортунатова, Владимир Антоник, Всеволод Кузнецов, Артем Затиев, Александр Груздев

    Описание

    Добро пожаловать на ЗвероПолюс, где власть находится в лапах больших, сильных и зубастых. Ради собственного превосходства они готовы переделать под себя весь мир. Лишь маленькие, но очень храбрые встанут на защиту не только родного Северного полюса, но и целой планеты. Именно они — настоящие Стражи Арктики.

    Возраст: 6+ (зрителям, достигшим 6 лет)
    Рейтинг MPAA: PG (рекомендуется присутствие родителей)
    Дата мировой премьеры: 1 ноября 2019
    Дата российской премьеры: 14 ноября 2019, Вольга
    Цифровой релиз: 28 января 2020, Вольга
    Продолжительность: 01: 32: 54
    Качество видео: BDRip
    Перевод: Дублированный (iTunes)
    Субтитры: Английские (SDH)
    Видео: AVC/H.264, 1024x428 (2, 40: 1), ~1800 kbps
    Аудио: AC3, 6 ch, 48 kHz, 384 kbps
    General
    Unique ID : 228067516563442003145433177455801594409 (0xAB9434B9157BBDCB8BE35BEE7746F229)
    Complete name : D: Arctic_Justice_2019_BDRip_AVC.mkv
    Format : Matroska
    Format version : Version 4
    File size : 1.42 GiB
    Duration : 1 h 32 min
    Overall bit rate : 2 182 kb/s
    Movie name : Стражи Арктики/Arctic Justice (2019)
    Encoded date : UTC 2020-01-28 10: 49: 08
    Writing application : mkvmerge v41.0.0 (\'Smarra\') 64-bit
    Writing library : libebml v1.3.9 + libmatroska v1.5.2
    Cover : Yes
    Attachments : cover.jpg
    Video
    ID : 1
    Format : AVC
    Format/Info : Advanced Video Codec
    Format profile : High@L4.1
    Format settings : CABAC/12 Ref Frames
    Format settings, CABAC : Yes
    Format settings, ReFrames : 12 frames
    Codec ID : V_MPEG4/ISO/AVC
    Duration : 1 h 32 min
    Bit rate : 1 800 kb/s
    Width : 1 024 pixels
    Height : 428 pixels
    Display aspect ratio : 2.40: 1
    Frame rate mode : Constant
    Frame rate : 23.976 FPS
    Color space : YUV
    Chroma subsampling : 4: 2: 0
    Bit depth : 8 bits
    Scan type : Progressive
    Bits/(Pixel*Frame) : 0.171
    Stream size : 1.17 GiB (82%)
    Title : #stillet
    Writing library : x264 core 152 r2851bm ba24899
    Encoding settings : cabac=1/ref=12/deblock=1: -2: -2/analyse=0x3: 0x113/me=umh/subme=11/psy=1/psy_rd=1.00: 0.15/mixed_ref=1/me_range=32/chroma_me=1/trellis=2/8x8dct=1/cqm=0/deadzone=21, 11/fast_pskip=0/chroma_qp_offset=-3/threads=8/lookahead_threads=3/sliced_threads=0/nr=0/decimate=0/interlaced=0/bluray_compat=0/constrained_intra=0/bframes=11/b_pyramid=2/b_adapt=2/b_bias=0/direct=3/weightb=1/open_gop=0/weightp=2/keyint=240/keyint_min=23/scenecut=40/intra_refresh=0/rc=2pass/mbtree=0/bitrate=1800/ratetol=1.0/qcomp=0.60/qpmin=0/qpmax=69/qpstep=4/cplxblur=20.0/qblur=0.5/ip_ratio=1.40/pb_ratio=1.30/aq=1: 1.00
    Language : English
    Default : Yes
    Forced : No
    Audio
    ID : 2
    Format : AC-3
    Format/Info : Audio Coding 3
    Commercial name : Dolby Digital
    Codec ID : A_AC3
    Duration : 1 h 32 min
    Bit rate mode : Constant
    Bit rate : 384 kb/s
    Channel(s) : 6 channels
    Channel layout : L R C LFE Ls Rs
    Sampling rate : 48.0 kHz
    Frame rate : 31.250 FPS (1536 SPF)
    Bit depth : 16 bits
    Compression mode : Lossy
    Stream size : 255 MiB (18%)
    Title : DUB | iTunes
    Language : Russian
    Service kind : Complete Main
    Default : Yes
    Forced : Yes
    Text
    ID : 3
    Format : UTF-8
    Codec ID : S_TEXT/UTF8
    Codec ID/Info : UTF-8 Plain Text
    Duration : 1 h 31 min
    Bit rate : 69 b/s
    Count of elements : 1599
    Stream size : 46.7 KiB (0%)
    Title : SDH
    Language : English
    Default : No
    Forced : No
    Menu
    00: 00: 00.000 : en: Chapter 01
    00: 06: 18.628 : en: Chapter 02
    00: 12: 54.524 : en: Chapter 03
    00: 18: 57.553 : en: Chapter 04
    00: 23: 55.267 : en: Chapter 05
    00: 27: 27.521 : en: Chapter 06
    00: 33: 06.151 : en: Chapter 07
    00: 39: 50.388 : en: Chapter 08
    00: 47: 18.002 : en: Chapter 09
    00: 52: 12.796 : en: Chapter 10
    00: 58: 18.370 : en: Chapter 11
    01: 04: 20.607 : en: Chapter 12
    01: 12: 02.193 : en: Chapter 13
    01: 16: 21.744 : en: Chapter 14
    01: 20: 27.489 : en: Chapter 15
    01: 26: 59.548 : en: Chapter 16

    Скриншоты для ознакомления



    Все одноименные релизы в Клубе
    Время раздачи: 24/7 (до появления первых 3-5 скачавших)

    Онлайн видео Стражи Арктики



    Стражи Арктики / Arctic Justice (2019) BDRip [H.264] торрент скачать бесплатно
    Рейтинг →
     (голосов: 1, оценка 5/5, голосовать можно 1 раз )

    Другие торренты по теме:

  • Стражи Арктики / Arctic Justice (2019) BDRip [H.264 / 1080p] [PR]
  • Стражи Арктики / Arctic Justice (2019) BDRip [H.264 / 1080p] [PR]
  • Стражи Арктики / Arctic Justice (2019) BDRemux [H.264 / 1080p]
  • Стражи Арктики / Arctic Justice (2019) BDRip [720p] ATV
  • Стражи Арктики / Arctic Justice (2019) BDRip [1080p] ATV
  • Стражи Арктики / Arctic Justice (2019) BDRip [H.264 / 1080p-LQ] [hand made 16:9]
  • Стражи Арктики / Arctic Justice (2019) BDRip [H.264 / 1080p]
  • Стражи Арктики / Arctic Justice (2019) BDRip [H.264 / 720p]


    • Комментарии (0):

      Информация

      Информация

        Посетители, находящиеся в группе Гости, не могут оставлять комментарии в данной новости.

        ↓ Меню




        ↓ Опрос

        Вы добавили сайт в закладки?
        Да
        Нет


        Популярное

        М.Ю. Демидова | ЕГЭ-2020. Физика. 30 типовых вариантов (2020) [PDF]

        (скачиваний: 119)
        Малышарики (2015-2019) WEB-DL [H.264 / 1080p-LQ] (серии 1-154 из 208) [Обновляемая]

        (скачиваний: 111)
        Футурама / Futurama (1999-2013) DVDRip (7 Сезонов, 140 серии) скачать через торрент бесплатно

        (скачиваний: 57)
        Рик и Морти / Rick and Morty (2015) WEB-DL [H.264 / 1080p] (Сезон 2, серии 1-10 из 10) Сыендук [EN / RU Sub] скачать через торрент бесплатно

        (скачиваний: 45)
        Жила-была царевна (2015-2019) WEB-DLRip [H.264 / 720p-LQ] (сезон 1, серии 1-18 из 26) [Обновляемая]

        (скачиваний: 34)
        Лунтик и его друзья (2013-2017) WEB-DLRip 7,8,9 сезон (390-488 серии)[Обновляемая]

        (скачиваний: 34)
        Металионы / Metalions (2018-2019) WEB-DLRip [H.264 / 720p-LQ] (сезон 1, серии 1-52 из 52) [Обновляемая]

        (скачиваний: 32)
        Роботы-пожарные / Fire Robo (2016) WEB-DLRip [H.264 / 720p-LQ] (сезон 1, серии 1-26 из 26) [Обновляемая]

        (скачиваний: 25)
        Рик и Морти / Rick and Morty (2013-2015) BDRip [H.264] (сезон 1-2, серии 1-21 из 21) Сыендук

        (скачиваний: 25)
        Снежная Королева: Хранители Чудес (2019) WEB-DLRip [H.264 / 720p-LQ] (сезон 1, серия 1-4 из 26) [Обновляемая]

        (скачиваний: 25)