.
Авторизация | Регистрация
btracker.xyz
Торрент скачать бесплатно Мультфильмы торрент скачать Mister Пронька (1991) WEBRip торрент скачать бесплатно


    Mister Пронька (1991) WEBRip торрент скачать бесплатно

    Дата: 29-01-2020, 05:00 | .torrent скачали: 0

    Mister Пронька (1991) WEBRipПроизводство: СССР/Союзмультфильм
    Жанр: Короткометражный, рисованная анимация
    Режиссер: Леонид Носырев

    Актеры
    Евгений Леонов, Ольга Голованова, Клара Румянова, Анатолий Баранцев, Александр Пятков, Герман Качин, Т. Ананченко, Николай Курнаков

    Описание

    В Россию приезжает богатый американец с заданием от правительства, обратить в американску веру кого-нибудь из русских. Американец находит на рынке оборванца Проньку и заключает с ним пари: он даёт Проньке денег и возможность торговать, и если тот в течение 15 лет не будет никак мыться, то весь доход Пронька может взять себе.

    Возраст: 0+ (для любой зрительской аудитории)
    Продолжительность: 00: 25: 38
    Качество видео: WEBRip
    Субтитры: Отсутствуют
    Видео: Xvid, 720x540 (4: 3), ~1700 Kbps
    Аудио: AC3, 2 ch, 192 Kbps
    Общее
    Полное имя : D: Mister Пронька (1991).avi
    Формат : AVI
    Формат/Информация : Audio Video Interleave
    Размер файла : 349 Мбайт
    Продолжительность : 25 м. 38 с.
    Общий поток : 1902 Кбит/сек
    Программа кодирования : Lavf58.20.100
    Видео
    Идентификатор : 0
    Формат : MPEG-4 Visual
    Профиль формата : Advanced Simple@L5
    Настройки формата : BVOP2
    Параметр BVOP формата : 2
    Параметр QPel формата : Нет
    Параметр GMC формата : Без точки перехода
    Параметр матрицы формата : Default (MPEG)
    Идентификатор кодека : XVID
    Идентификатор кодека/Подсказка : XviD
    Продолжительность : 25 м. 38 с.
    Битрейт : 1699 Кбит/сек
    Ширина : 720 пикселей
    Высота : 540 пикселей
    Соотношение сторон : 4: 3
    Частота кадров : 25, 000 кадров/сек
    Цветовое пространство : YUV
    Субдискретизация насыщенности : 4: 2: 0
    Битовая глубина : 8 бит
    Тип развёртки : Прогрессивная
    Метод сжатия : С потерями
    Бит/(Пиксели*Кадры) : 0.175
    Размер потока : 312 Мбайт (89%)
    Библиотека кодирования : XviD 67
    Аудио
    Идентификатор : 1
    Формат : AC-3
    Формат/Информация : Audio Coding 3
    Коммерческое название : Dolby Digital
    Идентификатор кодека : 2000
    Продолжительность : 25 м. 38 с.
    Вид битрейта : Постоянный
    Битрейт : 192 Кбит/сек
    Каналы : 2 канала
    ChannelLayout : L R
    Частота : 48, 0 КГц
    Частота кадров : 31, 250 кадров/сек (1536 SPF)
    Битовая глубина : 16 бит
    Метод сжатия : С потерями
    Размер потока : 35, 2 Мбайт (10%)
    Выравнивание : Соединение по промежуткам
    Продолжительность промежутка : 32 мс. (0, 80 видеокадр)
    ServiceKind/String : Complete Main

    Скриншоты для ознакомления



    Все одноименные релизы в Клубе
    Время раздачи: 24/7 (круглосуточно) (до появления первых 3-5 скачавших)

    Онлайн видео Киллер Севен



    Mister Пронька (1991) WEBRip торрент скачать бесплатно
    Рейтинг →
     (голосов: 1, оценка 5/5, голосовать можно 1 раз )

    Другие торренты по теме:

  • Highly Suspect - Mister Asylum (2015) [MP3|320 кб / с] <Hard Rock, Stoner, Progressive Rock> скачать через торрент бесплатно
  • Mister Jim - Set Sails (2016) [FLAC|Lossless|WEB-DL|tracks] <Folk Rock, Blues, Americana>
  • JP Stingray - Mister Blues Strikes Again (2003) [FLAC|Lossless|tracks] <Blues>
  • Mister Retro - Machine Wash Deluxe 2.0 [En]
  • Blueside - Sinister Mister (2014) [FLAC|Lossless|WEB-DL|tracks + .cue] <Blues, Blues-Rock>
  • Неизбежное поражение Мистера и Пита / The Inevitable Defeat of Mister & Pete (2013) WEB-DL [H.264 / 1080p-LQ] [VO]
  • Mister E Double V - Sun Lounge (2017) [MP3|320 Kbps] <Lounge, Chillout, Downtempo, Chillstep, Ambient>
  • Мистер Феличита / Mister Felicita (2017) WEB-DLRip


    • Комментарии (0):

      Информация

      Информация

        Посетители, находящиеся в группе Гости, не могут оставлять комментарии в данной новости.

        ↓ Меню




        ↓ Опрос

        Вы добавили сайт в закладки?
        Да
        Нет


        Популярное

        М.Ю. Демидова | ЕГЭ-2020. Физика. 30 типовых вариантов (2020) [PDF]

        (скачиваний: 119)
        Малышарики (2015-2019) WEB-DL [H.264 / 1080p-LQ] (серии 1-154 из 208) [Обновляемая]

        (скачиваний: 111)
        Футурама / Futurama (1999-2013) DVDRip (7 Сезонов, 140 серии) скачать через торрент бесплатно

        (скачиваний: 58)
        Рик и Морти / Rick and Morty (2015) WEB-DL [H.264 / 1080p] (Сезон 2, серии 1-10 из 10) Сыендук [EN / RU Sub] скачать через торрент бесплатно

        (скачиваний: 45)
        Жила-была царевна (2015-2019) WEB-DLRip [H.264 / 720p-LQ] (сезон 1, серии 1-18 из 26) [Обновляемая]

        (скачиваний: 34)
        Лунтик и его друзья (2013-2017) WEB-DLRip 7,8,9 сезон (390-488 серии)[Обновляемая]

        (скачиваний: 34)
        Металионы / Metalions (2018-2019) WEB-DLRip [H.264 / 720p-LQ] (сезон 1, серии 1-52 из 52) [Обновляемая]

        (скачиваний: 32)
        Роботы-пожарные / Fire Robo (2016) WEB-DLRip [H.264 / 720p-LQ] (сезон 1, серии 1-26 из 26) [Обновляемая]

        (скачиваний: 27)
        Снежная Королева: Хранители Чудес (2019) WEB-DLRip [H.264 / 720p-LQ] (сезон 1, серия 1-4 из 26) [Обновляемая]

        (скачиваний: 25)
        Рик и Морти / Rick and Morty (2013-2015) BDRip [H.264] (сезон 1-2, серии 1-21 из 21) Сыендук

        (скачиваний: 25)