.
Авторизация | Регистрация
btracker.xyz
Торрент скачать бесплатно Мультфильмы торрент скачать Киллер Севен / Scissor Seven (2020) WEB-DL [H.264 / 1080p-LQ] (сезон 1, серии 1-14 из 14) NewStation торрент скачать бесплатно


    Киллер Севен / Scissor Seven (2020) WEB-DL [H.264 / 1080p-LQ] (сезон 1, серии 1-14 из 14) NewStation торрент скачать бесплатно

    Дата: 29-01-2020, 05:00 | .torrent скачали: 0

    Киллер Севен / Scissor Seven (2020) WEB-DL [H.264 / 1080p-LQ] (сезон 1, серии 1-14 из 14) NewStationПроизводство: Китай, Netflix
    Жанр: Приключения, Комедия
    Режиссер: Сяофэн Хэ

    Описание

    Стремясь восстановить свою память, вооруженный ножницами парикмахер, квази-ассасин натыкается на борьбу за власть среди враждующих фракций.

    Релиз от: NewStation
    Продолжительность: ~00: 15: 00 серия
    Качество видео: WEB-DL
    Перевод: Многоголосый любительский (NewStation)присутствует ненормативная лексика
    Субтитры: русские, английские, испанские, норвежские, индонезийские, греческие, румынские, немецкие, тайские, японские, итальянские, португальские, китайские, финские, шведские, ивритские, арабские, голландские, датские, польские, турецкие, корейские, французские
    Видео: AVC/H.264, 1920x1080, ~3480 Kbps
    Аудио #1: AC3, 2 ch, 256 Kbps, - Русский (NewStation)
    Аудио #2: EAC-3, 2ch, 128 kbps, - Китайский
    Общее
    Уникальный идентификатор : 317787879416428602354380596823909365583 (0xEF13B82398691B304D622CA8644A774F)
    Полное имя : F: NewStationScissor.Seven.S01.WEB-DL.1080p.NewStationScissor.Seven.S01E01.WEB-DL.1080p.NewStation.mkv
    Формат : Matroska
    Версия формата : Version 4/Version 2
    Размер файла : 462 Мбайт
    Продолжительность : 16 м. 56 с.
    Режим общего битрейта : Переменный
    Общий поток : 3816 Кбит/сек
    Дата кодирования : UTC 2020-01-17 15: 27: 50
    Программа кодирования : mkvmerge v28.1.0 (\'Morning Child\') 64-bit
    Библиотека кодирования : libebml v1.3.6 + libmatroska v1.4.9
    Видео
    Идентификатор : 1
    Формат : AVC
    Формат/Информация : Advanced Video Codec
    Профиль формата : Main@L4
    Настройки формата : CABAC/3 Ref Frames
    Параметр CABAC формата : Да
    Параметр RefFrames формата : 3 кадра
    Идентификатор кодека : V_MPEG4/ISO/AVC
    Продолжительность : 16 м. 56 с.
    Вид битрейта : Переменный
    Битрейт : 3480 Кбит/сек
    Максимальный битрейт : 5220 Кбит/сек
    Ширина : 1920 пикселей
    Высота : 1080 пикселей
    Соотношение сторон : 16: 9
    Режим частоты кадров : Постоянный
    Частота кадров : 24, 000 кадра/сек
    Цветовое пространство : YUV
    Субдискретизация насыщенности : 4: 2: 0
    Битовая глубина : 8 бит
    Тип развёртки : Прогрессивная
    Бит/(Пиксели*Кадры) : 0.070
    Размер потока : 415 Мбайт (90%)
    Библиотека кодирования : x264 core 148 r2715 7e75228
    Настройки программы : cabac=1/ref=3/deblock=1: 0: 0/analyse=0x1: 0x111/me=umh/subme=10/psy=1/psy_rd=1.00: 0.00/mixed_ref=1/me_range=24/chroma_me=1/trellis=2/8x8dct=0/cqm=0/deadzone=21, 11/fast_pskip=1/chroma_qp_offset=-2/threads=8/lookahead_threads=1/sliced_threads=0/nr=0/decimate=1/interlaced=0/bluray_compat=0/stitchable=1/constrained_intra=0/bframes=2/b_pyramid=0/b_adapt=2/b_bias=0/direct=3/weightb=1/open_gop=0/weightp=2/keyint=250/keyint_min=24/scenecut=0/intra_refresh=0/rc_lookahead=48/rc=2pass/mbtree=1/bitrate=3480/ratetol=1.0/qcomp=0.50/qpmin=6/qpmax=51/qpstep=4/cplxblur=20.0/qblur=0.5/vbv_maxrate=5220/vbv_bufsize=6960/nal_hrd=vbr/filler=0/ip_ratio=1.40/aq=1: 1.00
    Default : Да
    Forced : Нет
    Аудио #1
    Идентификатор : 2
    Формат : AC-3
    Формат/Информация : Audio Coding 3
    Идентификатор кодека : A_AC3
    Продолжительность : 16 м. 56 с.
    Вид битрейта : Постоянный
    Битрейт : 256 Кбит/сек
    Каналы : 2 канала
    Расположение каналов : Front: L R
    Частота : 48, 0 КГц
    Частота кадров : 31, 250 кадров/сек (1536 SPF)
    Битовая глубина : 16 бит
    Метод сжатия : С потерями
    Размер потока : 31, 0 Мбайт (7%)
    Заголовок : NewStation
    Язык : Russian
    ServiceKind/String : Complete Main
    Default : Да
    Forced : Нет
    Аудио #2
    Идентификатор : 3
    Формат : E-AC-3
    Формат/Информация : Enhanced Audio Coding 3
    Идентификатор кодека : A_EAC3
    Продолжительность : 16 м. 56 с.
    Вид битрейта : Постоянный
    Битрейт : 128 Кбит/сек
    Каналы : 2 канала
    Расположение каналов : Front: L R
    Частота : 48, 0 КГц
    Частота кадров : 187, 500 кадров/сек (256 SPF)
    Метод сжатия : С потерями
    Размер потока : 15, 5 Мбайт (3%)
    Язык : Chinese
    ServiceKind/String : Complete Main
    Default : Нет
    Forced : Нет
    Текст #1
    Идентификатор : 4
    Формат : UTF-8
    Идентификатор кодека : S_TEXT/UTF8
    Идентификатор кодека/Информация : UTF-8 Plain Text
    Продолжительность : 14 м. 1 с.
    Битрейт : 60 бит/сек
    ElementCount : 185
    Размер потока : 6, 23 Кбайт (0%)
    Язык : English
    Default : Нет
    Forced : Нет
    Текст #2
    Идентификатор : 5
    Формат : UTF-8
    Идентификатор кодека : S_TEXT/UTF8
    Идентификатор кодека/Информация : UTF-8 Plain Text
    Продолжительность : 16 м. 24 с.
    Битрейт : 57 бит/сек
    ElementCount : 225
    Размер потока : 6, 89 Кбайт (0%)
    Заголовок : Simplified (SDH)
    Язык : Chinese
    Default : Нет
    Forced : Нет
    Текст #3
    Идентификатор : 6
    Формат : UTF-8
    Идентификатор кодека : S_TEXT/UTF8
    Идентификатор кодека/Информация : UTF-8 Plain Text
    Продолжительность : 16 м. 26 с.
    Битрейт : 63 бит/сек
    ElementCount : 255
    Размер потока : 7, 69 Кбайт (0%)
    Заголовок : Traditional (SDH)
    Язык : Chinese
    Default : Нет
    Forced : Нет
    Текст #4
    Идентификатор : 7
    Формат : UTF-8
    Идентификатор кодека : S_TEXT/UTF8
    Идентификатор кодека/Информация : UTF-8 Plain Text
    Продолжительность : 16 м. 26 с.
    Битрейт : 79 бит/сек
    ElementCount : 187
    Размер потока : 9, 52 Кбайт (0%)
    Язык : Arabic
    Default : Нет
    Forced : Нет
    Текст #5
    Идентификатор : 8
    Формат : UTF-8
    Идентификатор кодека : S_TEXT/UTF8
    Идентификатор кодека/Информация : UTF-8 Plain Text
    Продолжительность : 16 м. 26 с.
    Битрейт : 48 бит/сек
    ElementCount : 187
    Размер потока : 5, 79 Кбайт (0%)
    Язык : Czech
    Default : Нет
    Forced : Нет
    Текст #6
    Идентификатор : 9
    Формат : UTF-8
    Идентификатор кодека : S_TEXT/UTF8
    Идентификатор кодека/Информация : UTF-8 Plain Text
    Продолжительность : 16 м. 26 с.
    Битрейт : 49 бит/сек
    ElementCount : 187
    Размер потока : 5, 98 Кбайт (0%)
    Язык : Danish
    Default : Нет
    Forced : Нет
    Текст #7
    Идентификатор : 10
    Формат : UTF-8
    Идентификатор кодека : S_TEXT/UTF8
    Идентификатор кодека/Информация : UTF-8 Plain Text
    Продолжительность : 16 м. 26 с.
    Битрейт : 51 бит/сек
    ElementCount : 186
    Размер потока : 6, 21 Кбайт (0%)
    Язык : German
    Default : Нет
    Forced : Нет
    Текст #8
    Идентификатор : 11
    Формат : UTF-8
    Идентификатор кодека : S_TEXT/UTF8
    Идентификатор кодека/Информация : UTF-8 Plain Text
    Продолжительность : 16 м. 26 с.
    Битрейт : 91 бит/сек
    ElementCount : 187
    Размер потока : 11, 0 Кбайт (0%)
    Язык : Greek
    Default : Нет
    Forced : Нет
    Текст #9
    Идентификатор : 12
    Формат : UTF-8
    Идентификатор кодека : S_TEXT/UTF8
    Идентификатор кодека/Информация : UTF-8 Plain Text
    Продолжительность : 16 м. 26 с.
    Битрейт : 52 бит/сек
    ElementCount : 188
    Размер потока : 6, 34 Кбайт (0%)
    Заголовок : Latin American
    Язык : Spanish
    Default : Нет
    Forced : Нет
    Текст #10
    Идентификатор : 13
    Формат : UTF-8
    Идентификатор кодека : S_TEXT/UTF8
    Идентификатор кодека/Информация : UTF-8 Plain Text
    Продолжительность : 16 м. 26 с.
    Битрейт : 53 бит/сек
    ElementCount : 186
    Размер потока : 6, 48 Кбайт (0%)
    Заголовок : European
    Язык : Spanish
    Default : Нет
    Forced : Нет
    Текст #11
    Идентификатор : 14
    Формат : UTF-8
    Идентификатор кодека : S_TEXT/UTF8
    Идентификатор кодека/Информация : UTF-8 Plain Text
    Продолжительность : 16 м. 26 с.
    Битрейт : 43 бит/сек
    ElementCount : 186
    Размер потока : 5, 21 Кбайт (0%)
    Язык : Finnish
    Default : Нет
    Forced : Нет
    Текст #12
    Идентификатор : 15
    Формат : UTF-8
    Идентификатор кодека : S_TEXT/UTF8
    Идентификатор кодека/Информация : UTF-8 Plain Text
    Продолжительность : 16 м. 26 с.
    Битрейт : 54 бит/сек
    ElementCount : 187
    Размер потока : 6, 51 Кбайт (0%)
    Язык : French
    Default : Нет
    Forced : Нет
    Текст #13
    Идентификатор : 16
    Формат : UTF-8
    Идентификатор кодека : S_TEXT/UTF8
    Идентификатор кодека/Информация : UTF-8 Plain Text
    Продолжительность : 16 м. 26 с.
    Битрейт : 64 бит/сек
    ElementCount : 187
    Размер потока : 7, 82 Кбайт (0%)
    Язык : Hebrew
    Default : Нет
    Forced : Нет
    Текст #14
    Идентификатор : 17
    Формат : UTF-8
    Идентификатор кодека : S_TEXT/UTF8
    Идентификатор кодека/Информация : UTF-8 Plain Text
    Продолжительность : 16 м. 26 с.
    Битрейт : 50 бит/сек
    ElementCount : 187
    Размер потока : 6, 12 Кбайт (0%)
    Язык : Hungarian
    Default : Нет
    Forced : Нет
    Текст #15
    Идентификатор : 18
    Формат : UTF-8
    Идентификатор кодека : S_TEXT/UTF8
    Идентификатор кодека/Информация : UTF-8 Plain Text
    Продолжительность : 16 м. 26 с.
    Битрейт : 47 бит/сек
    ElementCount : 187
    Размер потока : 5, 68 Кбайт (0%)
    Язык : Indonesian
    Default : Нет
    Forced : Нет
    Текст #16
    Идентификатор : 19
    Формат : UTF-8
    Идентификатор кодека : S_TEXT/UTF8
    Идентификатор кодека/Информация : UTF-8 Plain Text
    Продолжительность : 16 м. 26 с.
    Битрейт : 53 бит/сек
    ElementCount : 184
    Размер потока : 6, 38 Кбайт (0%)
    Язык : Italian
    Default : Нет
    Forced : Нет
    Текст #17
    Идентификатор : 20
    Формат : UTF-8
    Идентификатор кодека : S_TEXT/UTF8
    Идентификатор кодека/Информация : UTF-8 Plain Text
    Продолжительность : 14 м. 21 с.
    Битрейт : 55 бит/сек
    ElementCount : 181
    Размер потока : 5, 83 Кбайт (0%)
    Язык : Japanese
    Default : Нет
    Forced : Нет
    Текст #18
    Идентификатор : 21
    Формат : UTF-8
    Идентификатор кодека : S_TEXT/UTF8
    Идентификатор кодека/Информация : UTF-8 Plain Text
    Продолжительность : 16 м. 26 с.
    Битрейт : 57 бит/сек
    ElementCount : 187
    Размер потока : 6, 97 Кбайт (0%)
    Язык : Korean
    Default : Нет
    Forced : Нет
    Текст #19
    Идентификатор : 22
    Формат : UTF-8
    Идентификатор кодека : S_TEXT/UTF8
    Идентификатор кодека/Информация : UTF-8 Plain Text
    Продолжительность : 16 м. 26 с.
    Битрейт : 48 бит/сек
    ElementCount : 187
    Размер потока : 5, 84 Кбайт (0%)
    Язык : Norwegian Bokmal
    Default : Нет
    Forced : Нет
    Текст #20
    Идентификатор : 23
    Формат : UTF-8
    Идентификатор кодека : S_TEXT/UTF8
    Идентификатор кодека/Информация : UTF-8 Plain Text
    Продолжительность : 16 м. 26 с.
    Битрейт : 49 бит/сек
    ElementCount : 186
    Размер потока : 5, 92 Кбайт (0%)
    Язык : Dutch
    Default : Нет
    Forced : Нет
    Текст #21
    Идентификатор : 24
    Формат : UTF-8
    Идентификатор кодека : S_TEXT/UTF8
    Идентификатор кодека/Информация : UTF-8 Plain Text
    Продолжительность : 16 м. 26 с.
    Битрейт : 48 бит/сек
    ElementCount : 187
    Размер потока : 5, 81 Кбайт (0%)
    Язык : Polish
    Default : Нет
    Forced : Нет
    Текст #22
    Идентификатор : 25
    Формат : UTF-8
    Идентификатор кодека : S_TEXT/UTF8
    Идентификатор кодека/Информация : UTF-8 Plain Text
    Продолжительность : 16 м. 26 с.
    Битрейт : 54 бит/сек
    ElementCount : 186
    Размер потока : 6, 58 Кбайт (0%)
    Заголовок : European
    Язык : Portuguese
    Default : Нет
    Forced : Нет
    Текст #23
    Идентификатор : 26
    Формат : UTF-8
    Идентификатор кодека : S_TEXT/UTF8
    Идентификатор кодека/Информация : UTF-8 Plain Text
    Продолжительность : 16 м. 26 с.
    Битрейт : 51 бит/сек
    ElementCount : 186
    Размер потока : 6, 24 Кбайт (0%)
    Заголовок : Brazilian
    Язык : Portuguese
    Default : Нет
    Forced : Нет
    Текст #24
    Идентификатор : 27
    Формат : UTF-8
    Идентификатор кодека : S_TEXT/UTF8
    Идентификатор кодека/Информация : UTF-8 Plain Text
    Продолжительность : 16 м. 26 с.
    Битрейт : 56 бит/сек
    ElementCount : 187
    Размер потока : 6, 81 Кбайт (0%)
    Язык : Romanian
    Default : Нет
    Forced : Нет
    Текст #25
    Идентификатор : 28
    Формат : UTF-8
    Идентификатор кодека : S_TEXT/UTF8
    Идентификатор кодека/Информация : UTF-8 Plain Text
    Продолжительность : 16 м. 26 с.
    Битрейт : 80 бит/сек
    ElementCount : 187
    Размер потока : 9, 72 Кбайт (0%)
    Язык : Russian
    Default : Нет
    Forced : Нет
    Текст #26
    Идентификатор : 29
    Формат : UTF-8
    Идентификатор кодека : S_TEXT/UTF8
    Идентификатор кодека/Информация : UTF-8 Plain Text
    Продолжительность : 16 м. 26 с.
    Битрейт : 53 бит/сек
    ElementCount : 184
    Размер потока : 6, 49 Кбайт (0%)
    Язык : Swedish
    Default : Нет
    Forced : Нет
    Текст #27
    Идентификатор : 30
    Формат : UTF-8
    Идентификатор кодека : S_TEXT/UTF8
    Идентификатор кодека/Информация : UTF-8 Plain Text
    Продолжительность : 16 м. 26 с.
    Битрейт : 119 бит/сек
    ElementCount : 187
    Размер потока : 14, 4 Кбайт (0%)
    Язык : Thai
    Default : Нет
    Forced : Нет
    Текст #28
    Идентификатор : 31
    Формат : UTF-8
    Идентификатор кодека : S_TEXT/UTF8
    Идентификатор кодека/Информация : UTF-8 Plain Text
    Продолжительность : 16 м. 26 с.
    Битрейт : 51 бит/сек
    ElementCount : 187
    Размер потока : 6, 18 Кбайт (0%)
    Язык : Turkish
    Default : Нет
    Forced : Нет
    Текст #29
    Идентификатор : 32
    Формат : UTF-8
    Идентификатор кодека : S_TEXT/UTF8
    Идентификатор кодека/Информация : UTF-8 Plain Text
    Продолжительность : 16 м. 26 с.
    Битрейт : 73 бит/сек
    ElementCount : 187
    Размер потока : 8, 85 Кбайт (0%)
    Язык : Vietnamese
    Default : Нет
    Forced : Нет
    Текст #30
    Идентификатор : 33
    Формат : UTF-8
    Идентификатор кодека : S_TEXT/UTF8
    Идентификатор кодека/Информация : UTF-8 Plain Text
    Продолжительность : 14 м. 21 с.
    Битрейт : 50 бит/сек
    ElementCount : 165
    Размер потока : 5, 27 Кбайт (0%)
    Заголовок : Simplified
    Язык : Chinese
    Default : Нет
    Forced : Нет
    Текст #31
    Идентификатор : 34
    Формат : UTF-8
    Идентификатор кодека : S_TEXT/UTF8
    Идентификатор кодека/Информация : UTF-8 Plain Text
    Продолжительность : 16 м. 26 с.
    Битрейт : 49 бит/сек
    ElementCount : 187
    Размер потока : 5, 92 Кбайт (0%)
    Заголовок : Traditional
    Язык : Chinese
    Default : Нет
    Forced : Нет

    Скриншоты для ознакомления



    Все одноименные релизы в Клубе
    Время раздачи: 24/7 (круглосуточно) (до появления первых 3-5 скачавших)

    Онлайн видео Киллер Севен



    Киллер Севен / Scissor Seven (2020) WEB-DL [H.264 / 1080p-LQ] (сезон 1, серии 1-14 из 14) NewStation торрент скачать бесплатно
    Рейтинг →
     (голосов: 1, оценка 5/5, голосовать можно 1 раз )

    Другие торренты по теме:

  • Киллер Джо / Killer Joe (2011) BDRip [1080p] ATV скачать через торрент бесплатно
  • Киллер / Hoi-sa-won (2012) BDRip [H.264]
  • Криминальная Россия. Развязка. Александр Солоник: влюблённый киллер (2014.11.18) SATRip скачать через торрент бесплатно
  • Николай Леонов, Алексей Макеев | Подставной киллер (2014) [MP3]
  • Чёрный киллер / Black Killer (1971) DVDRip [H.264] [VO] скачать через торрент бесплатно
  • Киллер / Le tueur (2007) DVDRip скачать через торрент бесплатно
  • Сергей Лысенко | Киллер и Килиманджаро (2015) [MP3]
  • Мой парень – киллер / Mr. Right (2015) WEB-DL [H.264 / 720p-LQ] [EN / EN Sub]


    • Комментарии (0):

      Информация

      Информация

        Посетители, находящиеся в группе Гости, не могут оставлять комментарии в данной новости.

        ↓ Меню




        ↓ Опрос

        Вы добавили сайт в закладки?
        Да
        Нет


        Популярное

        М.Ю. Демидова | ЕГЭ-2020. Физика. 30 типовых вариантов (2020) [PDF]

        (скачиваний: 119)
        Малышарики (2015-2019) WEB-DL [H.264 / 1080p-LQ] (серии 1-154 из 208) [Обновляемая]

        (скачиваний: 111)
        Футурама / Futurama (1999-2013) DVDRip (7 Сезонов, 140 серии) скачать через торрент бесплатно

        (скачиваний: 58)
        Рик и Морти / Rick and Morty (2015) WEB-DL [H.264 / 1080p] (Сезон 2, серии 1-10 из 10) Сыендук [EN / RU Sub] скачать через торрент бесплатно

        (скачиваний: 45)
        Жила-была царевна (2015-2019) WEB-DLRip [H.264 / 720p-LQ] (сезон 1, серии 1-18 из 26) [Обновляемая]

        (скачиваний: 34)
        Лунтик и его друзья (2013-2017) WEB-DLRip 7,8,9 сезон (390-488 серии)[Обновляемая]

        (скачиваний: 34)
        Металионы / Metalions (2018-2019) WEB-DLRip [H.264 / 720p-LQ] (сезон 1, серии 1-52 из 52) [Обновляемая]

        (скачиваний: 32)
        Роботы-пожарные / Fire Robo (2016) WEB-DLRip [H.264 / 720p-LQ] (сезон 1, серии 1-26 из 26) [Обновляемая]

        (скачиваний: 27)
        Снежная Королева: Хранители Чудес (2019) WEB-DLRip [H.264 / 720p-LQ] (сезон 1, серия 1-4 из 26) [Обновляемая]

        (скачиваний: 25)
        Рик и Морти / Rick and Morty (2013-2015) BDRip [H.264] (сезон 1-2, серии 1-21 из 21) Сыендук

        (скачиваний: 25)