.
Авторизация | Регистрация
btracker.xyz
Торрент скачать бесплатно Мультфильмы торрент скачать Arete Hime | Arite Hime | The Adventure of Princess Arete | Принцесса Аритэ [2001, Movie] BDRip 1080p 10-bit raw торрент скачать бесплатно


    Arete Hime | Arite Hime | The Adventure of Princess Arete | Принцесса Аритэ [2001, Movie] BDRip 1080p 10-bit raw торрент скачать бесплатно

    Дата: 28-01-2020, 05:00 | .torrent скачали: 0

    Arete Hime | Arite Hime | The Adventure of Princess Arete | Принцесса Аритэ [2001, Movie] BDRip 1080p 10-bit rawТип: Movie
    Жанр: фэнтези, драма, приключения
    Продолжительность: 115 мин.
    Дата выпуска: 21.07.2001
    Производство: Studio 4°C/スタジオ4℃
    Автор оригинала: Диана Коулз
    Режиссер: Катабути Сунао
    Ссылки: World-Art

    Описание

    Запертая отцом-королём до замужества в высокой башне замка, принцесса Аритэ коротает дни, созерцая мир, открывающийся из окна. Иногда она украдкой ускользает из дворца, чтобы понаблюдать простой люд в его обыденных трудах. Рыцари королевства соперничают за право жениться на ней и править подвластными землями, пытаясь добыть для неё самые ценные сокровища магии, созданные в прошлом давно вымершей расой волшебников. Но принцессе ничего этого не нужно. Она жаждет обычной жизни среди простых людей, ей хочется посетить экзотические страны, которые видела лишь в спрятанных под кроватью книгах. Такие неподобающие принцессе взгляды смущают всех во дворце. Однажды во дворец прилетает на фантастической летательной машине последний выживший волшебник Боукс с предложением взять Аритэ в жёны и сделать из неё настоящую принцессу в своём далёком замке.
    Язык озвучки: Японский
    Субтитры: Русские, английские, французские
    Перевод: Ramzes-III + Дмитрий
    Качество видео: BDRip
    Видео: AVC (High10@L4.1) 10 bit, 1920x1080, 23.976 fps, ~10.9 Mbps
    Аудио: DTS, 4 ch, 48 KHz, 1708 Kbps

    Скриншоты для ознакомления



    General
    Unique ID : 184822819222165451143873277634510110939 (0x8B0B9487A23050D99554C7542500C0DB)
    Format : Matroska
    Format version : Version 4
    File size : 9.28 GiB
    Duration : 1 h 44 min
    Overall bit rate mode : Variable
    Overall bit rate : 12.7 Mb/s
    Encoded date : UTC 2017-11-03 15: 03: 54
    Writing application : mkvmerge v8.3.0 (\'Over the Horizon\') 64bit
    Writing library : libebml v1.3.1 + libmatroska v1.4.2
    Attachments : ITC Franklin Gothic LT Medium Condensed.ttf/FromageCondOblique.ttf
    Video
    ID : 1
    Format : AVC
    Format/Info : Advanced Video Codec
    Format profile : High10@L4.1
    Format settings : CABAC/4 Ref Frames
    Format settings, CABAC : Yes
    Format settings, Reference : 4 frames
    Codec ID : V_MPEG4/ISO/AVC
    Duration : 1 h 44 min
    Bit rate : 10.9 Mb/s
    Width : 1 920 pixels
    Height : 1 080 pixels
    Display aspect ratio : 16: 9
    Frame rate mode : Constant
    Frame rate : 23.976 (24000/1001) FPS
    Color space : YUV
    Chroma subsampling : 4: 2: 0
    Bit depth : 10 bits
    Scan type : Progressive
    Bits/(Pixel*Frame) : 0.220
    Stream size : 8.01 GiB (86%)
    Writing library : x264 core 148 r2744 b97ae06
    Encoding settings : cabac=1/ref=4/deblock=1: -1: -1/analyse=0x3: 0x133/me=esa/subme=11/psy=1/psy_rd=0.90: 0.00/mixed_ref=1/me_range=32/chroma_me=1/trellis=2/8x8dct=1/cqm=0/deadzone=21, 11/fast_pskip=0/chroma_qp_offset=-2/threads=12/lookahead_threads=1/sliced_threads=0/nr=0/decimate=1/interlaced=0/bluray_compat=0/constrained_intra=0/bframes=4/b_pyramid=2/b_adapt=2/b_bias=0/direct=3/weightb=1/open_gop=0/weightp=2/keyint=240/keyint_min=23/scenecut=40/intra_refresh=0/rc_lookahead=50/rc=crf/mbtree=1/crf=16.0/qcomp=0.70/qpmin=8/qpmax=40/qpstep=4/vbv_maxrate=62500/vbv_bufsize=78125/crf_max=0.0/nal_hrd=none/filler=0/ip_ratio=1.40/aq=1: 1.10
    Language : Japanese
    Default : Yes
    Forced : No
    Color range : Limited
    Color primaries : BT.709
    Transfer characteristics : BT.709
    Matrix coefficients : BT.709
    Audio
    ID : 2
    Format : DTS XLL
    Format/Info : Digital Theater Systems
    Commercial name : DTS-HD Master Audio
    Codec ID : A_DTS
    Duration : 1 h 44 min
    Bit rate mode : Variable
    Bit rate : 1 708 kb/s
    Channel(s) : 4 channels
    Channel layout : C L R Cb
    Sampling rate : 48.0 kHz
    Frame rate : 93.750 FPS (512 SPF)
    Bit depth : 16 bits
    Compression mode : Lossless
    Stream size : 1.25 GiB (13%)
    Language : Japanese
    Default : Yes
    Forced : No
    Text #1
    ID : 3
    Format : ASS
    Codec ID : S_TEXT/ASS
    Codec ID/Info : Advanced Sub Station Alpha
    Duration : 1 h 44 min
    Bit rate : 76 b/s
    Count of elements : 917
    Compression mode : Lossless
    Stream size : 58.4 KiB (0%)
    Title : niizk
    Language : English
    Default : Yes
    Forced : No
    Text #2
    ID : 4
    Format : VobSub
    Muxing mode : zlib
    Codec ID : S_VOBSUB
    Codec ID/Info : Picture based subtitle format used on DVDs
    Duration : 1 h 44 min
    Bit rate : 1 243 b/s
    Count of elements : 708
    Stream size : 950 KiB (0%)
    Title : Genbu Solar
    Language : English
    Default : No
    Forced : No
    Text #3
    ID : 5
    Format : PGS
    Muxing mode : zlib
    Codec ID : S_HDMV/PGS
    Codec ID/Info : Picture based subtitle format used on BDs/HD-DVDs
    Duration : 1 h 44 min
    Bit rate : 6 518 b/s
    Count of elements : 1269
    Stream size : 4.86 MiB (0%)
    Title : English full
    Language : English
    Default : No
    Forced : No
    Text #4
    ID : 6
    Format : PGS
    Muxing mode : zlib
    Codec ID : S_HDMV/PGS
    Codec ID/Info : Picture based subtitle format used on BDs/HD-DVDs
    Duration : 1 h 44 min
    Bit rate : 8 248 b/s
    Count of elements : 1880
    Stream size : 6.17 MiB (0%)
    Title : French full
    Language : French
    Default : No
    Forced : No
    Text #5
    ID : 7
    Format : PGS
    Muxing mode : zlib
    Codec ID : S_HDMV/PGS
    Codec ID/Info : Picture based subtitle format used on BDs/HD-DVDs
    Duration : 1 h 41 min
    Bit rate : 65 b/s
    Count of elements : 14
    Stream size : 48.5 KiB (0%)
    Language : French
    Default : No
    Forced : No
    Menu
    00: 00: 00.000 : en: Chapter 01
    00: 08: 54.534 : en: Chapter 02
    00: 16: 53.879 : en: Chapter 03
    00: 27: 58.109 : en: Chapter 04
    00: 36: 22.914 : en: Chapter 05
    00: 44: 20.224 : en: Chapter 06
    00: 53: 54.998 : en: Chapter 07
    01: 04: 12.548 : en: Chapter 08
    01: 11: 34.189 : en: Chapter 09
    01: 21: 00.789 : en: Chapter 10
    01: 30: 06.134 : en: Chapter 11
    01: 40: 35.996 : en: Chapter 12
    Время раздачи: 24/7 (до появления первых 3-5 скачавших)

    Онлайн видео Arete Hime



    Arete Hime | Arite Hime | The Adventure of Princess Arete | Принцесса Аритэ [2001, Movie] BDRip 1080p 10-bit raw торрент скачать бесплатно
    Рейтинг →
     (голосов: 1, оценка 5/5, голосовать можно 1 раз )

    Другие торренты по теме:

  • Arite Hime | The Adventure of Princess Arete | Принцесса Аритэ [2001, Movie] DVDRip 576p raw+rus


    • Комментарии (0):

      Информация

      Информация

        Посетители, находящиеся в группе Гости, не могут оставлять комментарии в данной новости.

        ↓ Меню




        ↓ Опрос

        Вы добавили сайт в закладки?
        Да
        Нет


        Популярное

        М.Ю. Демидова | ЕГЭ-2020. Физика. 30 типовых вариантов (2020) [PDF]

        (скачиваний: 119)
        Малышарики (2015-2019) WEB-DL [H.264 / 1080p-LQ] (серии 1-154 из 208) [Обновляемая]

        (скачиваний: 111)
        Футурама / Futurama (1999-2013) DVDRip (7 Сезонов, 140 серии) скачать через торрент бесплатно

        (скачиваний: 58)
        Рик и Морти / Rick and Morty (2015) WEB-DL [H.264 / 1080p] (Сезон 2, серии 1-10 из 10) Сыендук [EN / RU Sub] скачать через торрент бесплатно

        (скачиваний: 45)
        Жила-была царевна (2015-2019) WEB-DLRip [H.264 / 720p-LQ] (сезон 1, серии 1-18 из 26) [Обновляемая]

        (скачиваний: 34)
        Лунтик и его друзья (2013-2017) WEB-DLRip 7,8,9 сезон (390-488 серии)[Обновляемая]

        (скачиваний: 34)
        Металионы / Metalions (2018-2019) WEB-DLRip [H.264 / 720p-LQ] (сезон 1, серии 1-52 из 52) [Обновляемая]

        (скачиваний: 32)
        Роботы-пожарные / Fire Robo (2016) WEB-DLRip [H.264 / 720p-LQ] (сезон 1, серии 1-26 из 26) [Обновляемая]

        (скачиваний: 27)
        Снежная Королева: Хранители Чудес (2019) WEB-DLRip [H.264 / 720p-LQ] (сезон 1, серия 1-4 из 26) [Обновляемая]

        (скачиваний: 25)
        Рик и Морти / Rick and Morty (2013-2015) BDRip [H.264] (сезон 1-2, серии 1-21 из 21) Сыендук

        (скачиваний: 25)