.
Авторизация | Регистрация
btracker.xyz
Торрент скачать бесплатно Мультфильмы торрент скачать Roujin Z | Old Person Z | Старик Зет [1991, Movie] BDRip 1080p raw+eng торрент скачать бесплатно


    Roujin Z | Old Person Z | Старик Зет [1991, Movie] BDRip 1080p raw+eng торрент скачать бесплатно

    Дата: 28-01-2020, 05:00 | .torrent скачали: 0

    Roujin Z | Old Person Z | Старик Зет [1991, Movie] BDRip 1080p raw+engТип: Movie
    Жанр: комедия, фантастика, меха
    Продолжительность: 80 мин.
    Дата выпуска: 14.09.1991
    Производство: A.P.P.P.
    Автор оригинала: Отомо Кацухиро
    Режиссер: Китакубо Хироюки
    Ссылки: World-Art

    Описание

    Министерство здравоохранения Японии спешит представить миру инновационную разработку, которая обеспечит беззаботную жизнь для престарелых японцев и их родных. Однако, для молоденькой Харуко, которая присматривает за пожилым Киджуро, современные разработки не пришлись по вкусу, так как в них отсутствует человеческая любовь и забота. На что готова пойти Харуко-сан, чтобы старик Зет увидел океан?
    Язык озвучки: Японский и английский
    Субтитры: Русские, английские
    Перевод: Lupus
    Качество видео: BDRip
    Видео: HEVC (Main@L4@Main) 8 bit, 1920x1078, 23.976 fps, ~2.8 Mbps
    Аудио (JAP): DTS, 6 ch, 48 KHz, 4385 Kbps
    Аудио (ENG): AAC, 2 ch, 48 KHz, 128 Kbps

    Скриншоты для ознакомления



    General
    Unique ID : 314761887115201271160837276731736543714 (0xECCCEF332E2B22F50945526D08BB51E2)
    Format : Matroska
    Format version : Version 4
    File size : 4.09 GiB
    Duration : 1 h 19 min
    Overall bit rate mode : Variable
    Overall bit rate : 7 329 kb/s
    Encoded date : UTC 2019-11-22 02: 27: 51
    Writing application : mkvmerge v35.0.0 (\'All The Love In The World\') 64-bit
    Writing library : libebml v1.3.9 + libmatroska v1.5.2
    Attachments : BellGothicStd-Light.otf/GillSansMTPro-Medium.otf/QuaySansMdITCTT.ttf/quaysansmditctt_italic.ttf
    Video
    ID : 1
    Format : HEVC
    Format/Info : High Efficiency Video Coding
    Format profile : Main@L4@Main
    Codec ID : V_MPEGH/ISO/HEVC
    Duration : 1 h 19 min
    Bit rate : 2 812 kb/s
    Width : 1 920 pixels
    Height : 1 078 pixels
    Display aspect ratio : 16: 9
    Frame rate mode : Constant
    Frame rate : 23.976 (24000/1001) FPS
    Color space : YUV
    Chroma subsampling : 4: 2: 0
    Bit depth : 8 bits
    Bits/(Pixel*Frame) : 0.057
    Stream size : 1.57 GiB (38%)
    Writing library : x265 2.9: WindowsGCC 8.2.064 bit 8bit+10bit+12bit
    Encoding settings : cpuid=1111039/frame-threads=2/numa-pools=4/wpp/no-pmode/no-pme/no-psnr/no-ssim/log-level=2/input-csp=1/input-res=1920x1078/interlace=0/total-frames=0/level-idc=0/high-tier=1/uhd-bd=0/ref=5/no-allow-non-conformance/no-repeat-t_heads/annexb/no-aud/no-hrd/info/hash=0/no-temporal-layers/open-gop/min-keyint=24/keyint=240/gop-lookahead=0/bframes=8/b-adapt=2/b-pyramid/bframe-bias=0/rc-lookahead=80/lookahead-slices=6/scenecut=40/radl=0/no-intra-refresh/ctu=64/min-cu-size=8/no-rect/no-amp/max-tu-size=32/tu-inter-depth=4/tu-intra-depth=4/limit-tu=1/rdoq-level=0/dynamic-rd=0.00/no-ssim-rd/signhide/tskip/nr-intra=0/nr-inter=0/no-constrained-intra/strong-intra-smoothing/max-merge=5/limit-refs=3/no-limit-modes/me=1/subme=2/merange=92/temporal-mvp/weightp/no-weightb/no-analyze-src-pics/deblock=3: 3/sao/no-sao-non-deblock/rd=3/early-skip/rskip/no-fast-intra/tskip-fast/no-cu-lossless/b-intra/no-splitrd-skip/rdpenalty=0/psy-rd=2.00/psy-rdoq=0.00/no-rd-refine/no-lossless/cbqpoffs=0/crqpoffs=0/rc=crf/crf=22.0/qcomp=0.60/qpstep=4/stats-write=0/stats-read=0/ipratio=1.40/pbratio=1.30/aq-mode=1/aq-strength=0.70/cutree/zone-count=0/no-strict-cbr/qg-size=32/no-rc-grain/qpmax=69/qpmin=0/no-const-vbv/sar=1/overscan=0/videoformat=5/range=0/colorprim=1/transfer=1/colormatrix=1/chromaloc=0/display-window=0/max-cll=0, 0/min-luma=0/max-luma=255/log2-max-poc-lsb=8/vui-timing-info/vui-hrd-info/slices=1/no-opt-qp-pps/no-opt-ref-list-length-pps/no-multi-pass-opt-rps/scenecut-bias=0.05/no-opt-cu-delta-qp/no-aq-motion/no-hdr/no-hdr-opt/no-dhdr10-opt/no-idr-recovery-sei/analysis-reuse-level=5/scale-factor=0/refine-intra=0/refine-inter=0/refine-mv=0/no-limit-sao/ctu-info=0/no-lowpass-dct/refine-mv-type=0/copy-pic=1/max-ausize-factor=1.0/no-dynamic-refine/no-single-sei
    Default : Yes
    Forced : No
    Color range : Limited
    Color primaries : BT.709
    Transfer characteristics : BT.709
    Matrix coefficients : BT.709
    Audio #1
    ID : 2
    Format : DTS XLL
    Format/Info : Digital Theater Systems
    Commercial name : DTS-HD Master Audio
    Codec ID : A_DTS
    Duration : 1 h 19 min
    Bit rate mode : Variable
    Bit rate : 4 385 kb/s
    Channel(s) : 6 channels
    Channel layout : C L R Ls Rs LFE
    Sampling rate : 48.0 kHz
    Frame rate : 93.750 FPS (512 SPF)
    Bit depth : 24 bits
    Compression mode : Lossless
    Stream size : 2.45 GiB (60%)
    Language : Japanese
    Default : Yes
    Forced : No
    Audio #2
    ID : 3
    Format : AAC LC SBR
    Format/Info : Advanced Audio Codec Low Complexity with Spectral Band Replication
    Commercial name : HE-AAC
    Format settings : Explicit
    Codec ID : A_AAC-2
    Duration : 1 h 19 min
    Bit rate : 128 kb/s
    Channel(s) : 2 channels
    Channel layout : L R
    Sampling rate : 48.0 kHz
    Frame rate : 23.438 FPS (2048 SPF)
    Compression mode : Lossy
    Delay relative to video : 43 ms
    Stream size : 73.0 MiB (2%)
    Language : English
    Default : No
    Forced : No
    Text
    ID : 4
    Format : ASS
    Codec ID : S_TEXT/ASS
    Codec ID/Info : Advanced Sub Station Alpha
    Duration : 1 h 14 min
    Bit rate : 93 b/s
    Count of elements : 849
    Compression mode : Lossless
    Stream size : 50.8 KiB (0%)
    Language : English
    Default : Yes
    Forced : No
    Время раздачи: 24/7 (до появления первых 3-5 скачавших)

    Онлайн видео Roujin Z



    Roujin Z | Old Person Z | Старик Зет [1991, Movie] BDRip 1080p raw+eng торрент скачать бесплатно
    Рейтинг →
     (голосов: 1, оценка 5/5, голосовать можно 1 раз )

    Другие торренты по теме:

  • Roujin Z / Старик Зет [1991, OAV, 1 эп] Remastered DVDRip raw


    • Комментарии (0):

      Информация

      Информация

        Посетители, находящиеся в группе Гости, не могут оставлять комментарии в данной новости.

        ↓ Меню




        ↓ Опрос

        Вы добавили сайт в закладки?
        Да
        Нет


        Популярное

        М.Ю. Демидова | ЕГЭ-2020. Физика. 30 типовых вариантов (2020) [PDF]

        (скачиваний: 119)
        Малышарики (2015-2019) WEB-DL [H.264 / 1080p-LQ] (серии 1-154 из 208) [Обновляемая]

        (скачиваний: 111)
        Футурама / Futurama (1999-2013) DVDRip (7 Сезонов, 140 серии) скачать через торрент бесплатно

        (скачиваний: 58)
        Рик и Морти / Rick and Morty (2015) WEB-DL [H.264 / 1080p] (Сезон 2, серии 1-10 из 10) Сыендук [EN / RU Sub] скачать через торрент бесплатно

        (скачиваний: 45)
        Жила-была царевна (2015-2019) WEB-DLRip [H.264 / 720p-LQ] (сезон 1, серии 1-18 из 26) [Обновляемая]

        (скачиваний: 34)
        Лунтик и его друзья (2013-2017) WEB-DLRip 7,8,9 сезон (390-488 серии)[Обновляемая]

        (скачиваний: 34)
        Металионы / Metalions (2018-2019) WEB-DLRip [H.264 / 720p-LQ] (сезон 1, серии 1-52 из 52) [Обновляемая]

        (скачиваний: 32)
        Роботы-пожарные / Fire Robo (2016) WEB-DLRip [H.264 / 720p-LQ] (сезон 1, серии 1-26 из 26) [Обновляемая]

        (скачиваний: 27)
        Снежная Королева: Хранители Чудес (2019) WEB-DLRip [H.264 / 720p-LQ] (сезон 1, серия 1-4 из 26) [Обновляемая]

        (скачиваний: 25)
        Рик и Морти / Rick and Morty (2013-2015) BDRip [H.264] (сезон 1-2, серии 1-21 из 21) Сыендук

        (скачиваний: 25)