.
Авторизация | Регистрация
btracker.xyz
Торрент скачать бесплатно Мультфильмы торрент скачать Дельфин Берни 2 / Bernie the Dolphin 2 (2019) WEB-DL [H.264 / 1080p-LQ] торрент скачать бесплатно


    Дельфин Берни 2 / Bernie the Dolphin 2 (2019) WEB-DL [H.264 / 1080p-LQ] торрент скачать бесплатно

    Дата: 28-01-2020, 05:00 | .torrent скачали: 0

    Дельфин Берни 2 / Bernie the Dolphin 2 (2019) WEB-DL [H.264 / 1080p-LQ]Производство: Канада, США | AIC Studios, Digital Caviar, Fairway Film Alliance
    Жанр: боевик, комедия, семейный
    Режиссер: Кирк Харрис

    Актеры
    Лола Султан, Патрик Малдун, Кевин Сорбо, Логан Аллен, Томми Роуз, Винсент Де Пол, Дахлия Леголт, Лили Кардон, Дарла Делгадо, Рики Уэйн

    Описание

    Во Флориде наступило лето, а вместе с ним и каникулы. Герои намерены провести его с удовольствием и пользой. Кевин снимает видео и записывает подкасты, а Холли работает помощником дрессировщика в океанариуме, где, кстати, появился дельфин-новичок. Внезапно дельфин Берни возвращается. Также выходит из тюрьмы их старый враг Уинстон, который вместе с корыстными подельниками что-то снова замышляет. Ребятам при помощи своего верного друга предстоит сорвать коварный план мести.

    Рейтинг MPAA: G (нет возрастных ограничений)
    Дата мировой премьеры: 6 декабря 2019
    Продолжительность: 01: 28: 56
    Качество видео: WEB-DL
    Перевод: Дублированный (iTunes)
    Субтитры: английские
    Видео: AVC/H.264, 1912x808 (2.35: 1), ~4521 kbps
    Аудио 1: AC3, 6 ch, 384 kbps - русский
    Аудио 2: AC3, 6 ch, 384 kbps - английский
    General
    Unique ID : 96682144307402212681653213639887657746 (0x48BC4DBE08612E0CE1E032B5E7759B12)
    Complete name : D: Bernie_the_Dolphin_2_2019_WEB-DL_1080p.mkv
    Format : Matroska
    Format version : Version 4
    File size : 3.66 GiB
    Duration : 1 h 38 min
    Overall bit rate : 5 290 kb/s
    Encoded date : UTC 2020-01-20 07: 04: 33
    Writing application : mkvmerge v41.0.0 (\'Smarra\') 64-bit
    Writing library : libebml v1.3.9 + libmatroska v1.5.2
    Cover : Yes
    Attachments : cover.jpg/cover.jpg
    Video
    ID : 1
    Format : AVC
    Format/Info : Advanced Video Codec
    Format profile : High@L4
    Format settings : CABAC/5 Ref Frames
    Format settings, CABAC : Yes
    Format settings, ReFrames : 5 frames
    Codec ID : V_MPEG4/ISO/AVC
    Duration : 1 h 38 min
    Bit rate : 4 521 kb/s
    Width : 1 912 pixels
    Height : 808 pixels
    Display aspect ratio : 2.35: 1
    Frame rate mode : Constant
    Frame rate : 23.976 FPS
    Color space : YUV
    Chroma subsampling : 4: 2: 0
    Bit depth : 8 bits
    Scan type : Progressive
    Bits/(Pixel*Frame) : 0.122
    Stream size : 3.12 GiB (85%)
    Title : BERNIE_AND_DOLPHIN_2 (2019) WEB-DL 1080p
    Language : English
    Default : Yes
    Forced : No
    Color range : Limited
    Color primaries : BT.709
    Transfer characteristics : BT.709
    Matrix coefficients : BT.709
    Audio #1
    ID : 2
    Format : AC-3
    Format/Info : Audio Coding 3
    Commercial name : Dolby Digital
    Codec ID : A_AC3
    Duration : 1 h 38 min
    Bit rate mode : Constant
    Bit rate : 384 kb/s
    Channel(s) : 6 channels
    Channel layout : L R C LFE Ls Rs
    Sampling rate : 48.0 kHz
    Frame rate : 31.250 FPS (1536 SPF)
    Bit depth : 16 bits
    Compression mode : Lossy
    Delay relative to video : -42 ms
    Stream size : 272 MiB (7%)
    Title : iTunes
    Language : Russian
    Service kind : Complete Main
    Default : Yes
    Forced : Yes
    Audio #2
    ID : 3
    Format : AC-3
    Format/Info : Audio Coding 3
    Commercial name : Dolby Digital
    Codec ID : A_AC3
    Duration : 1 h 38 min
    Bit rate mode : Constant
    Bit rate : 384 kb/s
    Channel(s) : 6 channels
    Channel layout : L R C LFE Ls Rs
    Sampling rate : 48.0 kHz
    Frame rate : 31.250 FPS (1536 SPF)
    Bit depth : 16 bits
    Compression mode : Lossy
    Delay relative to video : -42 ms
    Stream size : 272 MiB (7%)
    Language : English
    Service kind : Complete Main
    Default : No
    Forced : No
    Text
    ID : 4
    Format : UTF-8
    Codec ID : S_TEXT/UTF8
    Codec ID/Info : UTF-8 Plain Text
    Duration : 1 h 35 min
    Bit rate : 80 b/s
    Count of elements : 1410
    Stream size : 55.8 KiB (0%)
    Title : Full
    Language : English
    Default : No
    Forced : No
    Menu
    00: 00: 00.000 : en: 1
    00: 01: 31.000 : en: 2
    00: 11: 47.000 : en: 3
    00: 22: 49.000 : en: 4
    00: 32: 16.000 : en: 5
    00: 42: 41.000 : en: 6
    00: 52: 25.000 : en: 7
    01: 02: 13.000 : en: 8
    01: 11: 39.000 : en: 9
    01: 22: 50.000 : en: 10
    01: 35: 09.000 : en: 11

    Скриншоты для ознакомления



    Все одноименные релизы в Клубе
    Время раздачи: 24/7 (до появления первых 3-5 скачавших)

    Онлайн видео Дельфин Берни 2



    Дельфин Берни 2 / Bernie the Dolphin 2 (2019) WEB-DL [H.264 / 1080p-LQ] торрент скачать бесплатно
    Рейтинг →
     (голосов: 1, оценка 3/5, голосовать можно 1 раз )

    Другие торренты по теме:

  • Дельфин Берни / Bernie The Dolphin (2018) HDRip [MVO]
  • Дельфин Берни / Bernie The Dolphin (2018) BDRip [H.264 / 720p-LQ] [MVO]
  • Дельфин Берни / Bernie the Dolphin (2018) BDRemux [H.264 / 1080p]
  • Дельфин Берни / Bernie the Dolphin (2018) BDRip [H.264 / 1080p]


    • Комментарии (0):

      Информация

      Информация

        Посетители, находящиеся в группе Гости, не могут оставлять комментарии в данной новости.

        ↓ Меню




        ↓ Опрос

        Вы добавили сайт в закладки?
        Да
        Нет


        Популярное

        М.Ю. Демидова | ЕГЭ-2020. Физика. 30 типовых вариантов (2020) [PDF]

        (скачиваний: 119)
        Малышарики (2015-2019) WEB-DL [H.264 / 1080p-LQ] (серии 1-154 из 208) [Обновляемая]

        (скачиваний: 111)
        Футурама / Futurama (1999-2013) DVDRip (7 Сезонов, 140 серии) скачать через торрент бесплатно

        (скачиваний: 58)
        Рик и Морти / Rick and Morty (2015) WEB-DL [H.264 / 1080p] (Сезон 2, серии 1-10 из 10) Сыендук [EN / RU Sub] скачать через торрент бесплатно

        (скачиваний: 45)
        Жила-была царевна (2015-2019) WEB-DLRip [H.264 / 720p-LQ] (сезон 1, серии 1-18 из 26) [Обновляемая]

        (скачиваний: 34)
        Лунтик и его друзья (2013-2017) WEB-DLRip 7,8,9 сезон (390-488 серии)[Обновляемая]

        (скачиваний: 34)
        Металионы / Metalions (2018-2019) WEB-DLRip [H.264 / 720p-LQ] (сезон 1, серии 1-52 из 52) [Обновляемая]

        (скачиваний: 32)
        Роботы-пожарные / Fire Robo (2016) WEB-DLRip [H.264 / 720p-LQ] (сезон 1, серии 1-26 из 26) [Обновляемая]

        (скачиваний: 27)
        Снежная Королева: Хранители Чудес (2019) WEB-DLRip [H.264 / 720p-LQ] (сезон 1, серия 1-4 из 26) [Обновляемая]

        (скачиваний: 25)
        Рик и Морти / Rick and Morty (2013-2015) BDRip [H.264] (сезон 1-2, серии 1-21 из 21) Сыендук

        (скачиваний: 25)