.
Авторизация | Регистрация

btracker.xyz

» » Дылды (2019) WEB-DL [H.264 / 1080p-LQ] (сезон 1, серии 1 из 21) (обновляемая) торрент скачать бесплатно


    Дылды (2019) WEB-DL [H.264 / 1080p-LQ] (сезон 1, серии 1 из 21) (обновляемая) торрент скачать бесплатно

    Дата: 25-09-2019, 05:00 | .torrent скачали: 18

    Дылды (2019) WEB-DL [H.264 / 1080p-LQ] (сезон 1, серии 1 из 21) (обновляемая)Производство: Россия/Art Pictures Vision по заказу телеканала СТС
    Жанр: комедия, спорт
    Режиссер: Сергей Сенцов

    Актеры
    Павел Деревянко, Анна Невская, Дарья Урсуляк, Татьяна Орлова, Ангелина Поплавская, Дарья Пицик, Изабель Эйдлен, Юлия Макарова, Сергей Рубеко, Анна Антонова и др.

    Описание

    Тренер Михаил Ковалёв теряет работу из-за скандального характера и неуважительного отношения к женщинам. Чтобы вернуться в Суперлигу, ему нужно выиграть чемпионат по волейболу с провинциальной студенческой женской командой. Помешать ему в этом постараются проректор-перфекционист Ирина и затаившая обиду экс-девушка Наталья.

    Возраст: 16+ (зрителям, достигшим 16 лет)
    Дата российской премьеры: 7 октября 2019
    Релиз от: Getty
    Продолжительность: ~00: 25: 00 серия
    Качество видео: WEB-DL
    Видео: AVC/H.264, 1920x1080 (16: 9), ~4975 Kbps
    Аудио: AC3, 2 ch, 192 Kbps
    Общее
    Уникальный идентификатор : 102933759734987394139579243124170800974 (0x4D70522E1E150C5DF511DCC49F55BF4E)
    Полное имя : G: Dyldy.2019.WEB-DL.(1080p).GettyDyldy.s01e01.2019.WEB-DL.(1080p).Getty.mkv
    Формат : Matroska
    Версия формата : Version 4
    Размер файла : 963 Мбайт
    Продолжительность : 26 м. 3 с.
    Режим общего битрейта : Переменный
    Общий поток : 5169 Кбит/сек
    Дата кодирования : UTC 2019-09-24 15: 56: 19
    Программа кодирования : mkvmerge v36.0.0 (\'Is That Jazz?\') 64-bit
    Библиотека кодирования : libebml v1.3.9 + libmatroska v1.5.2
    Видео
    Идентификатор : 1
    Формат : AVC
    Формат/Информация : Advanced Video Codec
    Профиль формата : High@L5
    Настройки формата : CABAC/5 Ref Frames
    Параметр CABAC формата : Да
    Параметр RefFrames формата : 5 кадров
    Параметр GOP формата : M=4, N=50
    Идентификатор кодека : V_MPEG4/ISO/AVC
    Продолжительность : 26 м. 3 с.
    Вид битрейта : Переменный
    Битрейт : 4975 Кбит/сек
    Максимальный битрейт : 40, 0 Мбит/сек
    Ширина : 1920 пикселей
    Высота : 1080 пикселей
    Соотношение сторон : 16: 9
    Режим частоты кадров : Постоянный
    Частота кадров : 25, 000 кадров/сек
    Цветовое пространство : YUV
    Субдискретизация насыщенности : 4: 2: 0
    Битовая глубина : 8 бит
    Тип развёртки : Прогрессивная
    Бит/(Пиксели*Кадры) : 0.096
    Размер потока : 927 Мбайт (96%)
    Язык : Russian
    Default : Да
    Forced : Нет
    Цветовой диапазон : Limited
    Основные цвета : BT.709
    Характеристики трансфера : BT.709
    Коэффициенты матрицы : BT.709
    Аудио
    Идентификатор : 2
    Формат : AC-3
    Формат/Информация : Audio Coding 3
    Коммерческое название : Dolby Digital
    Идентификатор кодека : A_AC3
    Продолжительность : 26 м. 3 с.
    Вид битрейта : Постоянный
    Битрейт : 192 Кбит/сек
    Каналы : 2 канала
    ChannelLayout : L R
    Частота : 48, 0 КГц
    Частота кадров : 31, 250 кадров/сек (1536 SPF)
    Метод сжатия : С потерями
    Размер потока : 35, 8 Мбайт (4%)
    Язык : Russian
    ServiceKind/String : Complete Main
    Default : Да
    Forced : Нет

    Скриншоты для ознакомления



    Все одноименные релизы в Клубе
    Время раздачи: 24/7 (круглосуточно) (до появления первых 3-5 скачавших)

    Онлайн видео Дылды (2019) WEB-DL [H.264



    Дылды (2019) WEB-DL [H.264/1080p-LQ] (сезон 1, серии 1 из 21) (обновляемая)
    Рейтинг →
     (голосов: 1, оценка 5/5, голосовать можно 1 раз )

    Другие торренты по теме:

  • Дылды (2019) WEB-DL [H.264 / 720p-LQ] (сезон 1, серии 1-3 из 21) (обновляемая)


    • Комментарии (0):

      Информация

      Информация

        Посетители, находящиеся в группе Гости, не могут оставлять комментарии в данной новости.

        ↓ Меню




        ↓ Опрос

        Вы добавили сайт в закладки?
        Да
        Нет


        Популярное