.
Авторизация | Регистрация

btracker.xyz

» » Рим / Rome (2005-2007) BDRip [H.264 / 1080p] (сезон 1-2, серии 1-22 из 22) LostFilm, НТВ+ торрент скачать бесплатно


    Рим / Rome (2005-2007) BDRip [H.264 / 1080p] (сезон 1-2, серии 1-22 из 22) LostFilm, НТВ+ торрент скачать бесплатно

    Дата: 26-03-2018, 05:00 | .torrent скачали: 86

    Рим / Rome (2005-2007) BDRip [H.264 / 1080p] (сезон 1-2, серии 1-22 из 22) LostFilm, НТВ+Производство: Великобритания, США/HD Vision Studios, British Broadcasting Corporation (BBC), Home Box Office (HBO)
    Жанр: боевик, драма, мелодрама, военный, история
    Режиссер: Майкл Аптед, Микаэл Саломон, Аллен Култер

    Актеры
    Кевин МакКидд, Рэй Стивенсон, Полли Уокер, Керри Кондон, Киаран Хайндс, Джеймс Пьюрфой, Йен МакНайс, Линдси Дункан, Лидия Бионди, Тобиаш Мензес и др.

    Описание

    Сериал начинается в 52 году до н. э., когда Гай Юлий Цезарь завоевывает Галлию после восьмилетней войны и готовится возвращаться в Рим. Племянница Цезаря Атия с тревогой ждет его возвращения, патриции в отчаянии — они боятся, что возвращение Цезаря нарушит сложившийся статус-кво, что благополучие, которое они построили за счет плебса, будет подорвано.
    В сенате лидеры партии патрициев убеждают старого друга Цезаря, Помпея Великого, что Цезарь стал угрозой для процветания Рима. В это время два незадачливых легионера, Люций Варен и Тит Пуло, затевают авантюру, которая, в случае успеха, значительно повысит их благосостояние. Чем ближе легионы Цезаря продвигаются к Риму, тем больше растет напряжение между солдатами и мирными жителями, тем ближе к развязке конфликт, который навсегда изменит историю…

    Возраст: 18+ (зрителям, достигшим 18 лет. запрещено для детей)
    Продолжительность: ~00: 55: 00 серия
    Качество видео: BDRip
    Перевод: Многоголосый закадровый, профессиональный (LostFilm );
    Двухголосый закадровый, профессиональный (НТВ+ )
    Субтитры: Отсутствуют
    Видео: AVC/H.264, 1920х1080 (16: 9), ~12, 0 Mbps
    Аудио 1: AC-3, 6 ch, 384 kbps, 48 kHz - русский, многоголосый закадровый
    Аудио 2: AC-3, 2 ch, 192 kbps, 48 kHz - русский, двухголосый закадровый
    Общее
    Уникальный идентификатор : 172645386731585533516315175798794013207 (0x81E24AC0F2EF4734906F3CE3E29ACA17)
    Полное имя : F: Downloads Torrent1.HD2.СериалыРим.(2005-2007).BDRip.1080р.(LostFilmНТВ+)Сезон 13. Сова в терновнике.mkv
    Формат : Matroska
    Версия формата : Version 4/Version 2
    Размер файла : 3, 89 Гбайт
    Продолжительность : 44 м. 17 с.
    Общий поток : 12, 6 Мбит/сек
    Дата кодирования : UTC 2018-02-01 04: 21: 55
    Программа кодирования : mkvmerge v8.3.0 (\'Over the Horizon\') 64bit
    Библиотека кодирования : libebml v1.3.1 + libmatroska v1.4.2
    Видео
    Идентификатор : 1
    Формат : AVC
    Формат/Информация : Advanced Video Codec
    Профиль формата : High@L4.1
    Настройки формата : CABAC/4 Ref Frames
    Параметр CABAC формата : Да
    Параметр RefFrames формата : 4 кадра
    Идентификатор кодека : V_MPEG4/ISO/AVC
    Продолжительность : 44 м. 17 с.
    Битрейт : 12, 0 Мбит/сек
    Ширина : 1920 пикселей
    Высота : 1080 пикселей
    Соотношение сторон : 16: 9
    Режим частоты кадров : Постоянный
    Частота кадров : 23, 976 (24000/1001) кадра/сек
    Цветовое пространство : YUV
    Субдискретизация насыщенности : 4: 2: 0
    Битовая глубина : 8 бит
    Тип развёртки : Прогрессивная
    Бит/(Пиксели*Кадры) : 0.241
    Размер потока : 3, 71 Гбайт (95%)
    Библиотека кодирования : x264 core 130 r2273 b3065e6
    Настройки программы : cabac=1/ref=4/deblock=1: -1: -1/analyse=0x3: 0x133/me=umh/subme=11/psy=1/psy_rd=1.00: 0.10/mixed_ref=1/me_range=32/chroma_me=1/trellis=2/8x8dct=1/cqm=0/deadzone=21, 11/fast_pskip=0/chroma_qp_offset=-3/threads=12/lookahead_threads=1/sliced_threads=0/nr=0/decimate=1/interlaced=0/bluray_compat=0/constrained_intra=0/bframes=6/b_pyramid=2/b_adapt=2/b_bias=0/direct=3/weightb=1/open_gop=0/weightp=2/keyint=250/keyint_min=23/scenecut=40/intra_refresh=0/rc_lookahead=50/rc=2pass/mbtree=1/bitrate=12000/ratetol=1.0/qcomp=0.60/qpmin=0/qpmax=69/qpstep=4/cplxblur=20.0/qblur=0.5/ip_ratio=1.40/aq=1: 1.00
    Default : Да
    Forced : Нет
    Аудио #1
    Идентификатор : 2
    Формат : AC-3
    Формат/Информация : Audio Coding 3
    Идентификатор кодека : A_AC3
    Продолжительность : 44 м. 17 с.
    Вид битрейта : Постоянный
    Битрейт : 384 Кбит/сек
    Каналы : 6 каналов
    Расположение каналов : Front: L C R, Side: L R, LFE
    Частота : 48, 0 КГц
    Частота кадров : 31, 250 кадров/сек (1536 SPF)
    Битовая глубина : 16 бит
    Метод сжатия : С потерями
    Размер потока : 122 Мбайт (3%)
    Заголовок : AC3, 5.1 ch, 384 kbps (многоголосый - LostFilm)
    Язык : Russian
    ServiceKind/String : Complete Main
    Default : Да
    Forced : Нет
    Аудио #2
    Идентификатор : 3
    Формат : AC-3
    Формат/Информация : Audio Coding 3
    Идентификатор кодека : A_AC3
    Продолжительность : 44 м. 17 с.
    Вид битрейта : Постоянный
    Битрейт : 192 Кбит/сек
    Каналы : 2 канала
    Расположение каналов : Front: L R
    Частота : 48, 0 КГц
    Частота кадров : 31, 250 кадров/сек (1536 SPF)
    Битовая глубина : 16 бит
    Метод сжатия : С потерями
    Размер потока : 60, 8 Мбайт (2%)
    Заголовок : AC3, 2.0ch, 192 kbps (многоголосый - НТВ+)
    Язык : Russian
    ServiceKind/String : Complete Main
    Default : Нет
    Forced : Нет


    Онлайн видео Рим



    Рим/Rome (2005-2007) BDRip [H.264/1080p] (сезон 1-2, серии 1-22 из 22) LostFilm, НТВ+
    Рейтинг →
     (голосов: 1, оценка 5/5, голосовать можно 1 раз )

    Другие торренты по теме:

  • Muse - Live At Rome Olympic Stadium (2013) BDRip [H.264 / 1080р] скачать через торрент бесплатно
  • Однажды в Риме / When in Rome(2010) BDRip [H.264]
  • Однажды в Риме / When in Rome (2010) BDRip [H.264 / 720p]
  • Рим / Rome (2005-2007) BDRip-HEVC [H.265 / 1080p] (сезоны 1-2, серии 1-22 из 22) Lostfilm + НТВ+
  • Собор Святого Петра и Великая базилика в 3D / St. Peters and the Papal Basilicas of Rome 3D (2016) BDRip 3D [H.264 / 1080p] [Вертикальная анаморфная стереопара]
  • Восемь дней, которые создали Рим / Eight Days That Made Rome (2017) BDRip [H.264 / 1080p-LQ] (Серии 1-3 из 8) (Обновляемая)
  • Тони Роум / Tony Rome (1967) BDRip [H.264 / 720р-LQ]
  • Собор Святого Петра и Великая базилика Рима / St. Peters and the Papal Basilicas of Rome (2016) BDRip [H.264 / 1080p-LQ]


    • Комментарии (0):

      Информация

      Информация

        Посетители, находящиеся в группе Гости, не могут оставлять комментарии в данной новости.

        ↓ Меню




        ↓ Опрос

        Вы добавили сайт в закладки?
        Да
        Нет


        Популярное