.
Авторизация | Регистрация

btracker.xyz

» » Звездочет (2004) DVDRip (серии 1-12 из 12) торрент скачать бесплатно


    Звездочет (2004) DVDRip (серии 1-12 из 12) торрент скачать бесплатно

    Дата: 30-10-2017, 05:00 | .torrent скачали: 166

    Звездочет (2004) DVDRip (серии 1-12 из 12)Производство: Россия
    Жанр: Боевик, приключения
    Режиссер: Гурий Атнев

    Актеры
    Владимир Вдовиченков, Ирина Леонова, Даниил Страхов, Юлия Свежакова, Александр Тютин, Иван Шабалтас, Игорь Лифанов, Дмитрий Шевченко, Валерий Золотухин, Павел Деревянко и др.

    Описание

    Он известен как Звездочет. Но его настоящее имя знает очень ограниченный круг людей — его коллеги по нелегкому шпионскому делу. Сергей Чумаков, молодой аферист, проживает по чужим документам в Праге вместе с любимой девушкой Леной...

    Возраст: 16+ (зрителям, достигшим 16 лет)
    Продолжительность: ~00: 43: 00 серия
    Качество видео: DVDRip
    Видео: Xvid, 720x416, ~1745 Kbps
    Аудио: AC3, 6 ch, 448 Kbps
    Общее
    Полное имя : D: Звездочет (2004)Серия 01.avi
    Формат : AVI
    Формат/Информация : Audio Video Interleave
    Размер файла : 701 Мбайт
    Продолжительность : 44 м. 23 с.
    Общий поток : 2207 Кбит/сек
    Программа кодирования : VirtualDubMod 1.5.10.2 (build 2540/release)
    Библиотека кодирования : VirtualDubMod build 2540/release
    Видео
    Идентификатор : 0
    Формат : MPEG-4 Visual
    Профиль формата : Advanced Simple@L5
    Настройки формата : BVOP2
    Параметр BVOP формата : 2
    Параметр QPel формата : Нет
    Параметр GMC формата : Без точки перехода
    Параметр матрицы формата : Default (MPEG)
    Идентификатор кодека : XVID
    Идентификатор кодека/Подсказка : XviD
    Продолжительность : 44 м. 23 с.
    Битрейт : 1747 Кбит/сек
    Ширина : 720 пикселей
    Высота : 416 пикселей
    Соотношение сторон : 1, 731
    Частота кадров : 29, 970 (30000/1001) кадров/сек
    Цветовое пространство : YUV
    Субдискретизация насыщенности : 4: 2: 0
    Битовая глубина : 8 бит
    Тип развёртки : Прогрессивная
    Метод сжатия : С потерями
    Бит/(Пиксели*Кадры) : 0.195
    Размер потока : 555 Мбайт (79%)
    Библиотека кодирования : XviD 1.2.0.dev47 (UTC 2006-11-01)
    Аудио
    Идентификатор : 1
    Формат : AC-3
    Формат/Информация : Audio Coding 3
    Параметр Endianness формата : Big
    Идентификатор кодека : 2000
    Продолжительность : 44 м. 23 с.
    Вид битрейта : Постоянный
    Битрейт : 448 Кбит/сек
    Каналы : 6 каналов
    Расположение каналов : Front: L C R, Side: L R, LFE
    Частота : 48, 0 КГц
    Частота кадров : 31, 250 кадров/сек (1536 SPF)
    Битовая глубина : 16 бит
    Метод сжатия : С потерями
    Размер потока : 142 Мбайт (20%)
    Выравнивание : Разделение по промежуткам
    Продолжительность промежутка : 33 мс. (1, 00 видеокадр)
    Время предзагрузки промежутка : 500 мс.
    ServiceKind/String : Complete Main

    Скриншоты для ознакомления



    Все одноименные релизы в Клубе
    Время раздачи: 24/7 (круглосуточно) (до появления первых 3-5 скачавших)

    Онлайн видео Звездочет (2004) DVDRip (серии 1



    Звездочет (2004) DVDRip (серии 1-12 из 12)
    Рейтинг →
     (голосов: 1, оценка 5/5, голосовать можно 1 раз )

    Другие торренты по теме:

  • Подшивка журналов | Звездочет [Обновляемая] (1995-2003) [PDF]
  • Подшивка журналов | Звездочет (1995-2004) [PDF] [Обновляемая]
  • Звездочет (1986) DVBRip [H.264] (серии 1-3 из 3)


    • Комментарии (0):

      Информация

      Информация

        Посетители, находящиеся в группе Гости, не могут оставлять комментарии в данной новости.

        ↓ Меню




        ↓ Опрос

        Вы добавили сайт в закладки?
        Да
        Нет


        Популярное